Завантажити та скачати торренти українською


7 днів і ночей з Мерилін / My Week with Marilyn (2011) 720p Ukr/Eng | Sub Eng | Line

Нові коментарі

Нова тема   Відповісти
Автор Повідомлення
Віктор 
Відео Гуртом - субтитрування
Відео Гуртом - субтитрування


З нами з: 09.01.10
Востаннє: 09.12.16
Повідомлень: 8664

2012-02-26 01:26  
7 днів і ночей з Мерилін / My Week with Marilyn (2011) 720p Ukr/Eng | Sub Eng | Line

7 днів і ночей з Мерилін / My Week with Marilyn (2011) 720p Ukr/Eng | Sub Eng | Line


Жанр: біографічний, драма
Країна: Велика Британія, США



Кіностудія / кінокомпанія: Weinstein Company, The, BBC Films, Lipsync Productions
Режисер: Саймон Кертіс (Simon Curtis)
Композитор: Конрад Поуп (Conrad Pope)
Актори: Мішель Вільямс (Michelle Williams), Едді Рідмейн (Eddie Redmayne), Джулія Ормонд (Julia Ormond), Кеннет Брана (Kenneth Branagh, Піп Торренс (Pip Torrens, Емма Вотсон (Emma Watson), Джеральдін Сомервілль (Geraldine Somerville), Майкл Кітчен (Michael Kitchen), Тобі Джонс (Toby Jones), Дюґрей Скот (Dougray Scott), Домінік Купер (Dominic Cooper), Джуді Денч (Judi Dench) та інші.

Сюжет:
Неперевершена, сексуальна і леґендарна Мерилін Монро відправляється до Англії на зйомки нового фільму. Вона зачаровує і полонить усіх навколо, і в тому числі - юного асистента режисера Коліна. Але що відчуває сама Мерилін? Чи може вона закохатися в недосвідченого юнака? 40 років потому Колін напише свої знамениті щоденники, які лягли в основу картини про неймовірний тиждень кохання.

Фільм заснований на реальних подіях і достовірних чутках.
Перемоги, номінації та цікаві факти

Оскар, 2012 рік
Номінації (2):
Найкраща жіноча роль (Мішель Вільямс)
Найкраща чоловіча роль другого плану (Кеннет Брана)

Золотий ґлобус, 2012 рік
Переможець (1):
Найкраща жіноча роль (комедія або мюзикл) (Мішель Вільямс)

Номінації (2):
Найкращий фільм (комедія або мюзикл)
Найкраща чоловіча роль другого плану (Кеннет Брана)

Британська академія, 2012 рік
Номінації (6):

Найкраща жіноча роль (Мішель Вільямс)
Найкраща чоловіча роль другого плану (Кеннет Брана)
Найкраща жіноча роль другого плану (Джуді Денч)
Найкращі костюми
Найкращий грим / зачіски
Найкращий британський фільм

Цікаві факти про фільм


• Серед конкуренток Мішель Вільямс на роль Монро були Кейт Гадсон, Емі Адамс і Скарлет Йоганссон.
• Рейф Файнс відмовився від ролі Лоуренса Олів’є, щоб зняти фільм «Коріолан».
• Початковим вибором на роль Вів’єн Лі була Кетрін Зета-Джонс. Актриса в кінцевому рахунку відхилила пропозицію, не бажаючи залишати хворого на рак у той час свого чоловіка Майкла Даґласа.
• Бюджет - £6,400,000
MediaInfo

Код:
General
Unique ID                        : 187974026776581699314360559455846021487 (0x8D6A7B0EBC7813868470150082A4396F)
Complete name                    : D:\HURTOM\My Week with Marilyn (2011) [ukr, eng] 720p [Hurtom].mkv
Format                           : Matroska
Format version                   : Version 2
File size                        : 5.10 GiB
Duration                         : 1h 38mn
Overall bit rate                 : 7 386 Kbps
Movie name                       : My Week with Marilyn (2011) [ukr, eng] 720p [Hurtom]
Encoded date                     : UTC 2012-02-26 09:43:14
Writing application              : mkvmerge v5.0.1 ('Es ist Sommer') built on Oct  9 2011 11:55:43
Writing library                  : libebml v1.2.2 + libmatroska v1.3.0

Video
ID                               : 1
Format                           : AVC
Format/Info                      : Advanced Video Codec
Format profile                   : [email protected]
Format settings, CABAC           : Yes
Format settings, ReFrames        : 12 frames
Codec ID                         : V_MPEG4/ISO/AVC
Duration                         : 1h 38mn
Bit rate                         : 5 300 Kbps
Width                            : 1 280 pixels
Height                           : 544 pixels
Display aspect ratio             : 2.35:1
Frame rate                       : 23.976 fps
Color space                      : YUV
Chroma subsampling               : 4:2:0
Bit depth                        : 8 bits
Scan type                        : Progressive
Bits/(Pixel*Frame)               : 0.317
Stream size                      : 3.56 GiB (70%)
Title                            : My Week with Marilyn (2011) [ukr, eng] 720p [Hurtom]
Writing library                  : core 120 r2164 da19765
Encoding settings                : cabac=1 / ref=12 / deblock=1:-3:-3 / analyse=0x3:0x133 / me=umh / subme=10 / psy=1 / psy_rd=0.95:0.00 / mixed_ref=1 / me_range=32 / chroma_me=1 / trellis=2 / 8x8dct=1 / cqm=0 / deadzone=21,11 / fast_pskip=0 / chroma_qp_offset=-2 / threads=12 / sliced_threads=0 / nr=0 / decimate=0 / interlaced=0 / bluray_compat=0 / constrained_intra=0 / bframes=7 / b_pyramid=2 / b_adapt=2 / b_bias=0 / direct=3 / weightb=1 / open_gop=0 / weightp=2 / keyint=240 / keyint_min=24 / scenecut=40 / intra_refresh=0 / rc=2pass / mbtree=0 / bitrate=5300 / ratetol=1.0 / qcomp=0.75 / qpmin=0 / qpmax=69 / qpstep=4 / cplxblur=20.0 / qblur=0.5 / ip_ratio=1.40 / pb_ratio=1.25 / aq=1:1.15 / zones=133784,142301,b=0.1
Language                         : English
Default                          : Yes
Forced                           : No

Audio #1
ID                               : 2
Format                           : AC-3
Format/Info                      : Audio Coding 3
Mode extension                   : CM (complete main)
Codec ID                         : A_AC3
Duration                         : 1h 38mn
Bit rate mode                    : Constant
Bit rate                         : 384 Kbps
Channel(s)                       : 6 channels
Channel positions                : Front: L C R, Side: L R, LFE
Sampling rate                    : 48.0 KHz
Bit depth                        : 16 bits
Compression mode                 : Lossy
Stream size                      : 272 MiB (5%)
Title                            : 5.1 @ 384 kbps - багатоголосий закадровий звук Line
Language                         : Ukrainian
Default                          : Yes
Forced                           : No

Audio #2
ID                               : 3
Format                           :
Format/Info                      : Digital Theater Systems
Codec ID                         : A_DTS
Duration                         : 1h 38mn
Bit rate mode                    : Constant
Bit rate                         : 1 510 Kbps
Channel(s)                       : 6 channels
Channel positions                : Front: L C R, Side: L R, LFE
Sampling rate                    : 48.0 KHz
Bit depth                        : 24 bits
Compression mode                 : Lossy
Stream size                      : 1.04 GiB (20%)
Title                            : 5.1 @ 1536 kbps
Language                         : English
Default                          : No
Forced                           : No

Audio #3
ID                               : 4
Format                           : AC-3
Format/Info                      : Audio Coding 3
Mode extension                   : CM (complete main)
Codec ID                         : A_AC3
Duration                         : 1h 38mn
Bit rate mode                    : Constant
Bit rate                         : 192 Kbps
Channel(s)                       : 2 channels
Channel positions                : Front: L R
Sampling rate                    : 48.0 KHz
Bit depth                        : 16 bits
Compression mode                 : Lossy
Stream size                      : 136 MiB (3%)
Title                            : 2.0 @ 192 kbps - Commentary
Language                         : English
Default                          : No
Forced                           : No

Text
ID                               : 5
Format                           : UTF-8
Codec ID                         : S_TEXT/UTF8
Codec ID/Info                    : UTF-8 Plain Text
Language                         : English
Default                          : No
Forced                           : No
Релізи та інформація про озвучення/дублювання

720p Ukr/Eng | Sub Eng (5.1 GB) — багатоголосий закадровий звук Line
Ukr/Eng (1.81 GB) — багатоголосий закадровий звук Line

Ролі озвучили: Мішель Вільямс — Наталя Романько-Кисельова?, Еді Рейдмен/Колін Кларк — Андрій Федінчик, Джулія Ормонд/Вів’єн Лі — Ольга Радчук і Максим Кондратюк
Тривалість: 01:38:56
Якість: 720p (HDChina) encoder- yangxi111 @ LU9998
Відео:
кодек:
розмір кадру: 1280x544
бітрейт: 5300 кб/с

Аудіо # 1:
мова: українська
переклад: багатоголосий закадровий звук Line
кодек: 5.1
бітрейт: 384 кб/с

Аудіо # 2:
мова: англійська
переклад: ориґінал
кодек: 5.1
бітрейт: 1536 кб/с

Аудіо # 3:
мова: англійська (коментарі)
кодек: 2.0
бітрейт: 192 кб/с

Субтитри:
мова: англійська
тип: програмні (м’які)
формат: *.srt

Скріншоти:





За синхронізацію укр. доріжки і люб’язно наданий код оформлення подяка Skiff


Джерело:
Особиста оцінка: не дивився


 Трекер:    Зареєстрований   

Завантажити / скачати фільм українською



відео для новачків



 Зареєстрований:   2012-02-26 12:13
 Розмір:   5.1 GB 
 Оцінка фільму:   7.2/10 (Голосів: 14)
   
Інші релізи
POMEO 
Відео Гуртом - запис з ТБ
Відео Гуртом - запис з ТБ


З нами з: 01.07.08
Востаннє: 10.12.16
Повідомлень: 786

2012-02-26 10:50  
Цікаво буде переглянути це біографічне кіно.
bot 
робот


З нами з: 30.09.07
Востаннє: 26.05.05
Повідомлень: 16044

2012-02-26 12:12  
Тему перенесено з Анонси релізів від Відео Гуртом до форуму Фільми в HD


w2958l

sparr0w 
Свій


З нами з: 21.11.11
Востаннє: 26.10.16
Повідомлень: 55

2012-02-26 12:31  
дуже люблю HD, якісне кіно українською!
ДЯКУЮ

Gnat_ 
Частий відвідувач


З нами з: 30.01.11
Востаннє: 10.12.16
Повідомлень: 47

2012-02-26 18:59  
О просто чудово звук і якість на висоті !!!!!!!!!!

waldi-hurtom 
VIP


З нами з: 07.10.12
Востаннє: 09.12.16
Повідомлень: 613

2013-01-03 21:16  
Неперевершено! Тільки з жанром плутанина - це не біографічний і не драма. Скоріше, чудове романтичне кіно з крихітними елементами біографії Монро і зовсім трішки драми десь за кадром. Англійці молодці! 10 балів. Велика подяка за озвучку та можливість насолодитись цим фільмом.
POMEO 
Відео Гуртом - запис з ТБ
Відео Гуртом - запис з ТБ


З нами з: 01.07.08
Востаннє: 10.12.16
Повідомлень: 786

2013-01-03 21:58  
waldi-hurtom написано:
це не біографічний

Фільм заснований на реальних подіях і достовірних чутках.

Ваш часовий пояс: GMT + 2 Години

Нова тема   Відповісти