Завантажити та скачати торренти українською


Час / In Time (2011) 1080p Ukr/Eng | Sub Ukr/Eng

Нові коментарі

Нова тема   Відповісти
Автор Повідомлення
Anonymous 







2012-02-25 22:33  
Час / In Time (2011) 1080p Ukr/Eng | Sub Ukr/Eng

Час / In Time (2011) 1080p Ukr/Eng | Sub Ukr/Eng


Жанр: екшн, фантастика, трилер
Країна: США



Кіностудія / кінокомпанія: Regency Enterprises, New Regency Pictures, Strike Entertainment
Режисер: Ендрю Ніккол (Andrew Niccol)
Актори: Джастін Тімберлейк (Justin Timberlake), Аманда Сейфрід (Amanda Seyfried), Кілліан Мерфі (Cillian Murphy), Алекс Петтіфер (Alex Pettyfer), Олiвія Вайлд (Olivia Wilde), Джонні Ґалекі (Johnny Galecki), Джессі Лі (Jesse Lee Soffer) та інші.

Сюжет:
Ласкаво просимо у світ, де час став єдиною і найтвердішою валютою, де люди генетично запрограмовані так, що в 25 років перестають старіти. Щоправда, подальші роки коштують грошей. Багаті "заробляють" десятиріччя в лічені дні, що робить їх практично безсмертними, тоді як решта вимушені випрошувати, позичати або красти години, щоб прожити залишок дня


Тривалість: 01:49:16
Якість:
Відео:
кодек:
розмір кадру: 1920 x 816
бітрейт: 12300 кб/с

Аудіо # 1:
мова: українська
переклад: професійний дубльований
кодек: 5.1
бітрейт: 448 кб/с

Аудіо # 2:
мова: англійська
переклад: оригінал
кодек: 5.1
бітрейт: 1536 кб/с

Джерело озвучення:


Субтитри:
мова: українська
тип: програмні (м'які)
формат: *.srt

Субтитри:
мова: англійська
тип: програмні (м'які)
формат: *.srt
MediaInfo

General
Complete name : In.Time.2011..1080p.Ukr.Eng.Sub.Ukr.Eng.mkv
Format : Matroska
File size : 11.1 GiB
Duration : 1h 49mn
Overall bit rate : 14.5 Mbps
Movie name : -Talian-
Encoded date : UTC 2012-02-25 20:04:09
Writing application : mkvmerge v3.2.0 ('Beginnings') built on Feb 12 2010 16:46:17
Writing library : libebml v0.7.9 + libmatroska v0.8.1

Video
ID : 4
Format : AVC
Format/Info : Advanced Video Codec
Format profile : [email protected]
Format settings, CABAC : Yes
Format settings, ReFrames : 5 frames
Muxing mode : Container [email protected]
Codec ID : V_MPEG4/ISO/AVC
Duration : 1h 49mn
Bit rate : 12.3 Mbps
Nominal bit rate : 12.6 Mbps
Width : 1 920 pixels
Height : 816 pixels
Display aspect ratio : 2.35:1
Frame rate : 23.976 fps
Resolution : 24 bits
Colorimetry : 4:2:0
Scan type : Progressive
Bits/(Pixel*Frame) : 0.327
Stream size : 9.38 GiB (84%)
Title : In.Time.2011.1080p.BluRay..-HDChina
Writing library : core 120 r2145 748fe16
Encoding settings : cabac=1 / ref=5 / deblock=1:-3:-3 / analyse=0x3:0x133 / me=umh / subme=10 / psy=1 / psy_rd=0.90:0.00 / mixed_ref=1 / me_range=64 / chroma_me=1 / trellis=2 / 8x8dct=1 / cqm=0 / deadzone=21,11 / fast_pskip=0 / chroma_qp_offset=-2 / threads=12 / sliced_threads=0 / nr=0 / decimate=0 / interlaced=0 / bluray_compat=0 / constrained_intra=0 / bframes=8 / b_pyramid=2 / b_adapt=2 / b_bias=0 / direct=3 / weightb=1 / open_gop=0 / weightp=2 / keyint=240 / keyint_min=24 / scenecut=40 / intra_refresh=0 / rc=2pass / mbtree=0 / bitrate=12588 / ratetol=1.0 / qcomp=0.75 / qpmin=0 / qpmax=69 / qpstep=4 / cplxblur=20.0 / qblur=0.5 / ip_ratio=1.40 / pb_ratio=1.25 / aq=1:1.10
Language : English

Audio #1
ID : 1
Format : AC-3
Format/Info : Audio Coding 3
Codec ID : A_AC3
Duration : 1h 49mn
Bit rate mode : Constant
Bit rate : 448 Kbps
Channel(s) : 6 channels
Channel positions : Front: L C R, Surround: L R, LFE
Sampling rate : 48.0 KHz
Stream size : 350 MiB (3%)
Title : Український професійний дубльований переклад - Blu Ray [ 5.1; 448 кб/с]
Language : Ukrainian

Audio #2
ID : 5
Format :
Format/Info : Digital Theater Systems
Codec ID : A_DTS
Duration : 1h 49mn
Bit rate mode : Constant
Bit rate : 1 510 Kbps
Channel(s) : 6 channels
Channel positions : Front: L C R, Surround: L R, LFE
Sampling rate : 48.0 KHz
Resolution : 24 bits
Video delay : 11ms
Stream size : 1.15 GiB (10%)
Title : Original
Language : English

Text #1
ID : 2
Format : UTF-8
Codec ID : S_TEXT/UTF8
Codec ID/Info : UTF-8 Plain Text
Title : Українські субтитри - Blu Ray
Language : Ukrainian

Text #2
ID : 3
Format : UTF-8
Codec ID : S_TEXT/UTF8
Codec ID/Info : UTF-8 Plain Text
Language : English

Menu
00:00:00.000 : en:00:00:00.000
00:07:20.917 : en:00:07:20.917
00:15:20.333 : en:00:15:20.333
00:22:17.167 : en:00:22:17.167
00:28:41.583 : en:00:28:41.583
00:37:07.042 : en:00:37:07.042
00:43:38.292 : en:00:43:38.292
00:51:06.167 : en:00:51:06.167
00:58:33.667 : en:00:58:33.667
01:05:24.917 : en:01:05:24.917
01:13:58.792 : en:01:13:58.792
01:19:52.875 : en:01:19:52.875
01:28:44.250 : en:01:28:44.250
01:34:44.208 : en:01:34:44.208
01:42:20.750 : en:01:42:20.750
Скріншоти





Джерело: &
Особиста оцінка: 10 - без зайвих вагань рекомендую всім!


 Трекер:    Зареєстрований   

Завантажити / скачати фільм українською



відео для новачків



 Зареєстрований:   2012-02-25 22:33
 Розмір:   11.1 GB 
 Оцінка фільму:   7.6/10 (Голосів: 16)
   
Інші релізи
   Час / In Time (2011) patriot2305  12 / 0   1.45 GB   2015-05-13 08:04 
   Час / In Time (2011) AVC Ukr/Eng | Sub Ukr/Eng Yarik M  10 / 0   1.92 GB   2015-05-12 07:09 
   Час / In Time (2011) 720p Ukr/Eng | Sub Ukr/Eng Dim-ON  6 / 0   5.37 GB   2012-02-22 19:18 
   Час / In Time (2011) Ukr/Eng BASTERD-94  7 / 0   2.18 GB   2012-02-16 20:27 
Віктор 
Відео Гуртом - субтитрування
Відео Гуртом - субтитрування


З нами з: 09.01.10
Востаннє: 08.12.16
Повідомлень: 8663

2012-02-25 22:39  
бітрейт: 384 кб/с виправіть на 448

Скріншоти в png я ще тут писав -http://toloka.to/t33455
і
w2958l написано:
Дописати кількість каналів .

Anonymous 







2012-02-25 22:52  
w2958l написано:
Скріншоти в png

Ні скріншоти в jpg

Віктор 
Відео Гуртом - субтитрування
Відео Гуртом - субтитрування


З нами з: 09.01.10
Востаннє: 08.12.16
Повідомлень: 8663

2012-02-25 22:55  
patriot2305 написано:
Ні скріншоти в jpg

Повинні бути в png

Anonymous 







2012-02-25 23:01  
w2958l написано:
Повинні бути в png

Зрозумів, зараз виправлю

DiGen 
Модератор HD та координатор Команди HD
Модератор HD та координатор Команди HD


З нами з: 12.11.09
Востаннє: 24.06.13
Повідомлень: 1452

2012-02-25 23:36  
patriot2305, правильно код спойлера для світлин необхідно виставити
Anonymous 







2012-02-25 23:57  
DiGen написано:
patriot2305, правильно код спойлера для світлин необхідно виставити

Виправив

Smілиveць 
Новенький


З нами з: 19.02.12
Востаннє: 31.01.16
Повідомлень: 1

2012-03-07 13:57  
В мене є цей фільм, але я маю низький рейтинг, і тому не можу завантажити собі торрент файл.
Що можна зробити?
рейтинг вже було раз анульовано

leroykendall 
Модератор HD


З нами з: 03.01.11
Востаннє: 20.11.16
Повідомлень: 749

2012-03-08 11:07  
Smілиveць
Як варіант можна пораздавати те що завантажили.

skuline 
Свій


З нами з: 17.12.11
Востаннє: 08.12.16
Повідомлень: 114

2013-05-08 19:54  
ФІльм непоганий , єдине-змазали кінцівку
Ваш часовий пояс: GMT + 2 Години

Нова тема   Відповісти