Завантажити та скачати торренти українською


Жандарми - Антологія / Le Gendarme - Anthology (1964 - 1982) 720p Ukr

Нові коментарі

Нова тема   Відповісти
Автор Повідомлення
chaoscor 
Свій


З нами з: 17.10.10
Востаннє: 03.12.16
Повідомлень: 73

2012-02-25 22:00  
Жандарми - Антологія / Le Gendarme - Anthology (1964 - 1982) 720p Ukr

Жандарми - Антологія / Le Gendarme - Anthology (1964 - 1982) 720p Ukr


Жанр: комедія
Країна: Франція
Жандарм із Сен-Тропе / Le Gendarme de St. Tropez (1964) 720p Ukr


Жандарм із Сен-Тропе / Le Gendarme de St. Tropez (1964) 720p Ukr




Жанр: комедія, кримінальний
Країна: Франція



Режисер: Жан Жиро
Актори: Луї де Фюнес, Мішель Ґалабрю, Женев'єва Ґрад, Клод П'єплю, Марія Паком, Жан Лефевр, Крістіан Марен

Сюжет:
У чарівне курортне містечко Сен-Тропез у зв'язку з підвищенням переводять бравого сержанта Крюшо (де Фюнес) з красунею-дочкою Ніколь. Добрі, але придуркуваті жандарми приймають нового колегу з радістю. Але радість була недовгою ... Ще більш безглуздий, ніж підлеглі, Крюшо із завзяттям стає на захист закону. Небезпечне полювання на нудистів, тренування на швидкість роздягання, пошуки викраденої з музею безцінної картини й неочікуване викриття банди небезпечних гангстерів, виховання легковажної дочки - це вам не ловити злодюжок, що крадуть чужих курей.

Тривалість: 01:39:18
Якість:
Відео:
кодек:
розмір кадру: 1280 х 720
бітрейт: 5546 кб/с

Аудіо №1:
мова: українська
переклад: двоголосий закадровий
кодек: MP3
бітрейт: 192 кб/с
Джерело озвучення:
MediaInfo
G:\проекти\Жандарми - Антологія Le Gendarme - Anthology 1964 - 1982 720p Ukr\Жандарм із Сен-Тропе Le Gendarme de St. Tropez 1964 720p Ukr.mkv
General
Complete name : G:\проекти\Жандарми - Антологія Le Gendarme - Anthology 1964 - 1982 720p Ukr\Жандарм із Сен-Тропе Le Gendarme de St. Tropez 1964 720p Ukr.mkv
Format : Matroska
File size : 3.98 GiB
Duration : 1h 39mn
Overall bit rate : 5 740 Kbps
Encoded date : UTC 2012-02-25 18:37:21
Writing application : mkvmerge v5.2.0 ('I can't explain') built on Dec 18 2011 18:12:03
Writing library : libebml v1.2.3 + libmatroska v1.3.0
Video #1
ID : 1
Format : AVC
Format/Info : Advanced Video Codec
Format profile : [email protected]
Format settings, CABAC : Yes
Format settings, ReFrames : 6 frames
Muxing mode : Container [email protected]
Codec ID : V_MPEG4/ISO/AVC
Duration : 1h 39mn
Bit rate : 5 433 Kbps
Nominal bit rate : 5 546 Kbps
Width : 1 280 pixels
Height : 720 pixels
Display aspect ratio : 16:9
Frame rate : 23.976 fps
Resolution : 8 bits
Colorimetry : 4:2:0
Scan type : Progressive
Bits/(Pixel*Frame) : 0.246
Stream size : 3.77 GiB (95%)
Title : Release for HDClub
Writing library : core 58 r798M 17e5dac
Encoding settings : cabac=1 / ref=6 / deblock=1:-3:-3 / analyse=0x3:0x133 / me=umh / subme=7 / me-prepass=0 / brdo=1 / mixed_ref=1 / me_range=16 / chroma_me=1 / trellis=1 / 8x8dct=1 / cqm=2 / deadzone=21,11 / chroma_qp_offset=0 / threads=3 / nr=0 / decimate=0 / mbaff=0 / bframes=3 / b_pyramid=1 / b_adapt=1 / b_bias=0 / direct=3 / wpredb=1 / bime=1 / keyint=250 / keyint_min=25 / scenecut=40(pre) / rc=2pass / bitrate=5546 / ratetol=1.0 / rceq='blurCplx^(1-qComp)' / qcomp=1.00 / qpmin=10 / qpmax=51 / qpstep=4 / cplxblur=20.0 / qblur=0.5 / ip_ratio=1.40 / pb_ratio=1.30 / aq=1:0.3:13.0
Language : French
Audio #2
ID : 2
Format : MPEG Audio
Format version : Version 1
Format profile : Layer 3
Codec ID : A_MPEG/L3
Codec ID/Hint : MP3
Duration : 1h 39mn
Bit rate mode : Constant
Bit rate : 192 Kbps
Channel(s) : 2 channels
Sampling rate : 48.0 KHz
Stream size : 136 MiB (3%)
Language : Ukrainian
Скріншоти
Джерело: &
Особиста оцінка: 10 - без зайвих вагань рекомендую всім!
Жандарм у Нью-Йорку / Le Gendarme a New York (1965) 720p Ukr


Жандарм у Нью-Йорку / Le Gendarme a New York (1965) 720p Ukr




Жанр: комедія
Країна: Франція



Режисер: Жан Жиро
Актори: Луї де Фюнес, Мішель Ґалабрю, Женев'єва Ґрад, Клод П'єплю, Марія Паком, Жан Лефевр, Крістіан Марен

Сюжет:
Дружна бригада жандармів відправляється в Нью-Йорк представляти Францію на міжнародному конгресі поліцейських. Крюшо, Мерло, Фугас, Трікар і Берліко на чолі з бравим сержантом Жерберем їдуть в далеку дорогу. Важко не заплямувати честь мундира, якщо на вас чекає країна хмарочосів і спокус, а англійською ви не розмовляєте. До того ж Крюшо дізнається, що його дочка Ніколь, всупереч волі батька, зайцем проникла на пароплав, щоб потрапити в Нью-Йорк на пошуки чоловіка всього свого життя. Якщо це відкриється - його кар'єрі кінець ...

Тривалість: 01:41:54
Якість:
Відео:
кодек:
розмір кадру: 1280 х 720
бітрейт: 5386 кб/с

Аудіо №1:
мова: українська
переклад: двоголосий закадровий
кодек: MP3
бітрейт: 192 кб/с
Джерело озвучення:
MediaInfo
G:\проекти\Жандарми - Антологія Le Gendarme - Anthology 1964 - 1982 720p Ukr\Жандарм у Нью-Йорку Le Gendarme a New York 1965 720p Ukr.mkv
General
Complete name : G:\проекти\Жандарми - Антологія Le Gendarme - Anthology 1964 - 1982 720p Ukr\Жандарм у Нью-Йорку Le Gendarme a New York 1965 720p Ukr.mkv
Format : Matroska
File size : 3.97 GiB
Duration : 1h 41mn
Overall bit rate : 5 580 Kbps
Encoded date : UTC 2012-02-25 18:51:50
Writing application : mkvmerge v5.2.0 ('I can't explain') built on Dec 18 2011 18:12:03
Writing library : libebml v1.2.3 + libmatroska v1.3.0
Video #1
ID : 1
Format : AVC
Format/Info : Advanced Video Codec
Format profile : [email protected]
Format settings, CABAC : Yes
Format settings, ReFrames : 6 frames
Muxing mode : Container [email protected]
Codec ID : V_MPEG4/ISO/AVC
Duration : 1h 41mn
Bit rate : 5 277 Kbps
Nominal bit rate : 5 386 Kbps
Width : 1 280 pixels
Height : 720 pixels
Display aspect ratio : 16:9
Frame rate : 23.976 fps
Resolution : 8 bits
Colorimetry : 4:2:0
Scan type : Progressive
Bits/(Pixel*Frame) : 0.239
Stream size : 3.75 GiB (94%)
Title : Release for HDClub
Writing library : core 58 r798M 17e5dac
Encoding settings : cabac=1 / ref=6 / deblock=1:-3:-3 / analyse=0x3:0x133 / me=umh / subme=7 / me-prepass=0 / brdo=1 / mixed_ref=1 / me_range=16 / chroma_me=1 / trellis=1 / 8x8dct=1 / cqm=2 / deadzone=21,11 / chroma_qp_offset=0 / threads=3 / nr=0 / decimate=0 / mbaff=0 / bframes=3 / b_pyramid=1 / b_adapt=1 / b_bias=0 / direct=3 / wpredb=1 / bime=1 / keyint=250 / keyint_min=25 / scenecut=40(pre) / rc=2pass / bitrate=5386 / ratetol=1.0 / rceq='blurCplx^(1-qComp)' / qcomp=1.00 / qpmin=10 / qpmax=51 / qpstep=4 / cplxblur=20.0 / qblur=0.5 / ip_ratio=1.40 / pb_ratio=1.30 / aq=1:0.3:13.0
Language : French
Audio #2
ID : 2
Format : MPEG Audio
Format version : Version 1
Format profile : Layer 3
Codec ID : A_MPEG/L3
Codec ID/Hint : MP3
Duration : 1h 41mn
Bit rate mode : Constant
Bit rate : 192 Kbps
Channel(s) : 2 channels
Sampling rate : 48.0 KHz
Stream size : 140 MiB (3%)
Скріншоти
Джерело: &
Особиста оцінка: 10 - без зайвих вагань рекомендую всім!
Жандарм одружується / Le Gendarme se marie (1968) 720p Ukr


Жандарм одружується / Le Gendarme se marie (1968) 720p Ukr




Жанр: комедія
Країна: Франція



Режисер: Жан Жиро
Актори: Луї де Фюнес, Жан Лефевр, Женев'єва Ґрад, Крістіан Марен, Мішель Модо

Сюжет:
Продовження веселих пригод жандарма із Сен-Тропе. Початок сезону відпусток. Орди туристів і сексапільних туристок обрушуються на тихе курортне містечко. Сержант Крюшо (Луї де Фюнес) веде боротьбу з порушниками громадського порядку. Одного прекрасного дня він зупиняє за перевищення швидкості Жозефу й, на жаль, сам опиняється у павутинні кохання. Пристрасть, як блискавка, пронизує серце мужнього сержанта й чарівної вдови. Справа наближається до весілля, але дочка сержанта не хоче мати мачуху. Бідний і нещасний Людовик Крюшо ...

Тривалість: 01:29:23
Якість:
Відео:
кодек:
розмір кадру: 1280 х 720
бітрейт: 6246 кб/с

Аудіо №1:
мова: українська
переклад: двоголосий закадровий
кодек: MP3
бітрейт: 192 кб/с
Джерело озвучення:
MediaInfo
G:\проекти\Жандарми - Антологія Le Gendarme - Anthology 1964 - 1982 720p Ukr\Жандарм одружується Le Gendarme se marie 1968 720p Ukr.mkv
General
Complete name : G:\проекти\Жандарми - Антологія Le Gendarme - Anthology 1964 - 1982 720p Ukr\Жандарм одружується Le Gendarme se marie 1968 720p Ukr.mkv
Format : Matroska
File size : 4.01 GiB
Duration : 1h 29mn
Overall bit rate : 6 426 Kbps
Encoded date : UTC 2012-02-25 19:05:42
Writing application : mkvmerge v5.2.0 ('I can't explain') built on Dec 18 2011 18:12:03
Writing library : libebml v1.2.3 + libmatroska v1.3.0
Video #1
ID : 1
Format : AVC
Format/Info : Advanced Video Codec
Format profile : [email protected]
Format settings, CABAC : Yes
Format settings, ReFrames : 6 frames
Muxing mode : Container [email protected]
Codec ID : V_MPEG4/ISO/AVC
Duration : 1h 29mn
Bit rate : 6 106 Kbps
Nominal bit rate : 6 246 Kbps
Width : 1 280 pixels
Height : 720 pixels
Display aspect ratio : 16:9
Frame rate : 23.976 fps
Resolution : 8 bits
Colorimetry : 4:2:0
Scan type : Progressive
Bits/(Pixel*Frame) : 0.276
Stream size : 3.81 GiB (95%)
Title : Release for HDClub
Writing library : core 59 r808M ff5059a
Encoding settings : cabac=1 / ref=6 / deblock=1:-3:-3 / analyse=0x3:0x133 / me=umh / subme=7 / me-prepass=0 / brdo=1 / mixed_ref=1 / me_range=16 / chroma_me=1 / trellis=1 / 8x8dct=1 / cqm=2 / deadzone=21,11 / chroma_qp_offset=0 / threads=3 / nr=0 / decimate=0 / mbaff=0 / bframes=3 / b_pyramid=1 / b_adapt=1 / b_bias=0 / direct=3 / wpredb=1 / bime=1 / keyint=250 / keyint_min=25 / scenecut=40(pre) / rc=2pass / bitrate=6246 / ratetol=1.0 / rceq='blurCplx^(1-qComp)' / qcomp=1.00 / qpmin=10 / qpmax=51 / qpstep=4 / cplxblur=20.0 / qblur=0.5 / ip_ratio=1.40 / pb_ratio=1.30 / aq=2:0.30
Language : French
Audio #2
ID : 2
Format : MPEG Audio
Format version : Version 1
Format profile : Layer 3
Codec ID : A_MPEG/L3
Codec ID/Hint : MP3
Duration : 1h 29mn
Bit rate mode : Constant
Bit rate : 192 Kbps
Channel(s) : 2 channels
Sampling rate : 48.0 KHz
Stream size : 123 MiB (3%)
Language : Ukrainian
Скріншоти
Джерело: &
Особиста оцінка: 10 - без зайвих вагань рекомендую всім!
Жандарм на відпочинку / Le Gendarme En Balade (1970) 720p Ukr


Жандарм на відпочинку / Le Gendarme En Balade (1970) 720p Ukr




Жанр: комедія
Країна: Франція



Режисер: Жан Жиро
Актори: Луї де Фюнес, Жан Лефевр, Крістіан Марен, Мішель Модо, Мішель Ґалабрю

Сюжет:
Все рано чи пізно закінчується. Керівництво вирішило, що наші герої занадто старі й відправило їх на заслужених відпочинок. Це трагічний момент у житті такого мужнього офіцера, як сержант Крюшо (де Фюнес). Зачинившись в розкішному замку своєї дружини, він віддається зневірі, роблячи вигляд, що ловить рибу. Приїзд колишнього начальника Жербера виводить його зі сплячки. Вони збирають загін своїх підлеглих, надягають улюблену жандармську форму й вирушають назустріч новим подвигам ...

Тривалість: 01:40:26
Якість:
Відео:
кодек:
розмір кадру: 1280 х 720
бітрейт: 5475 кб/с

Аудіо №1:
мова: українська
переклад: двоголосий закадровий
кодек: MP3
бітрейт: 192 кб/с
Джерело озвучення:
MediaInfo
G:\проекти\Жандарми - Антологія Le Gendarme - Anthology 1964 - 1982 720p Ukr\Жандарм на відпочинку Le Gendarme En Balade 1970 720p Ukr.mkv
General
Complete name : G:\проекти\Жандарми - Антологія Le Gendarme - Anthology 1964 - 1982 720p Ukr\Жандарм на відпочинку Le Gendarme En Balade 1970 720p Ukr.mkv
Format : Matroska
File size : 3.98 GiB
Duration : 1h 40mn
Overall bit rate : 5 669 Kbps
Encoded date : UTC 2012-02-25 18:59:13
Writing application : mkvmerge v5.2.0 ('I can't explain') built on Dec 18 2011 18:12:03
Writing library : libebml v1.2.3 + libmatroska v1.3.0
Video #1
ID : 1
Format : AVC
Format/Info : Advanced Video Codec
Format profile : [email protected]
Format settings, CABAC : Yes
Format settings, ReFrames : 6 frames
Muxing mode : Container [email protected]
Codec ID : V_MPEG4/ISO/AVC
Duration : 1h 40mn
Bit rate : 5 364 Kbps
Nominal bit rate : 5 475 Kbps
Width : 1 280 pixels
Height : 720 pixels
Display aspect ratio : 16:9
Frame rate : 23.976 fps
Resolution : 8 bits
Colorimetry : 4:2:0
Scan type : Progressive
Bits/(Pixel*Frame) : 0.243
Stream size : 3.76 GiB (95%)
Title : Release for HDClub
Writing library : core 59 r808M ff5059a
Encoding settings : cabac=1 / ref=6 / deblock=1:-3:-3 / analyse=0x3:0x133 / me=umh / subme=7 / me-prepass=0 / brdo=1 / mixed_ref=1 / me_range=16 / chroma_me=1 / trellis=1 / 8x8dct=1 / cqm=2 / deadzone=21,11 / chroma_qp_offset=0 / threads=3 / nr=0 / decimate=0 / mbaff=0 / bframes=3 / b_pyramid=1 / b_adapt=1 / b_bias=0 / direct=3 / wpredb=1 / bime=1 / keyint=250 / keyint_min=25 / scenecut=40(pre) / rc=2pass / bitrate=5475 / ratetol=1.0 / rceq='blurCplx^(1-qComp)' / qcomp=1.00 / qpmin=10 / qpmax=51 / qpstep=4 / cplxblur=20.0 / qblur=0.5 / ip_ratio=1.40 / pb_ratio=1.30 / aq=2:0.30
Language : French
Audio #2
ID : 2
Format : MPEG Audio
Format version : Version 1
Format profile : Layer 3
Codec ID : A_MPEG/L3
Codec ID/Hint : MP3
Duration : 1h 40mn
Bit rate mode : Constant
Bit rate : 192 Kbps
Channel(s) : 2 channels
Sampling rate : 48.0 KHz
Stream size : 138 MiB (3%)
Language : Ukrainian
Скріншоти
Джерело: &
Особиста оцінка: 10 - без зайвих вагань рекомендую всім!
Жандарм та іншопланетяни / Le gendarme et les extra-terrestres (1978) 720p Ukr


Жандарм та іншопланетяни / Le gendarme et les extra-terrestres (1978) 720p Ukr




Жанр: комедія, кримінальний
Країна: Франція



Режисер: Жан Жиро
Актори: Луї де Фюнес, Жак Франсуа, Ґі Ґроссо, Мішель Модо, Мішель Ґалабрю, Марія Мобан

Сюжет:
Усі земні вороги вже переможені безстрашним загоном жандармів та їх сержантом Крюшо. Залишилось помірятися силами з прибульцями, які висаджуються в околицях Сен-Тропе. Підступні істоти не показують у свого справжнього обличчя. Вони приймають вигляд самих жандармів, відрізняючись від людей лише тим, що п'ють мастило та іржавіють від води. Це приводить до незліченних комічних ситуацій. І невідомо, що сталося б із Землею, якби не відчайдушна мужність сержанта Крюшо...

Тривалість: 01:31:10
Якість:
Відео:
кодек:
розмір кадру: 1280 х 720
бітрейт: 6110 кб/с

Аудіо №1:
мова: українська
переклад: двоголосий закадровий
кодек: MP3
бітрейт: 192 кб/с
Джерело озвучення:
MediaInfo
G:\проекти\Жандарми - Антологія Le Gendarme - Anthology 1964 - 1982 720p Ukr\Жандарм та іншопланетяни Le gendarme et les extra-terrestres 1978 720p Ukr.mkv
General
Complete name : G:\проекти\Жандарми - Антологія Le Gendarme - Anthology 1964 - 1982 720p Ukr\Жандарм та іншопланетяни Le gendarme et les extra-terrestres 1978 720p Ukr.mkv
Format : Matroska
File size : 4.01 GiB
Duration : 1h 31mn
Overall bit rate : 6 303 Kbps
Encoded date : UTC 2012-02-25 19:12:09
Writing application : mkvmerge v5.2.0 ('I can't explain') built on Dec 18 2011 18:12:03
Writing library : libebml v1.2.3 + libmatroska v1.3.0
Video #1
ID : 1
Format : AVC
Format/Info : Advanced Video Codec
Format profile : [email protected]
Format settings, CABAC : Yes
Format settings, ReFrames : 6 frames
Muxing mode : Container [email protected]
Codec ID : V_MPEG4/ISO/AVC
Duration : 1h 31mn
Bit rate : 5 986 Kbps
Nominal bit rate : 6 110 Kbps
Width : 1 280 pixels
Height : 720 pixels
Display aspect ratio : 16:9
Frame rate : 23.976 fps
Resolution : 8 bits
Colorimetry : 4:2:0
Scan type : Progressive
Bits/(Pixel*Frame) : 0.271
Stream size : 3.81 GiB (95%)
Title : Release for HDClub
Writing library : core 59 r808M ff5059a
Encoding settings : cabac=1 / ref=6 / deblock=1:-3:-3 / analyse=0x3:0x133 / me=umh / subme=7 / me-prepass=0 / brdo=1 / mixed_ref=1 / me_range=16 / chroma_me=1 / trellis=1 / 8x8dct=1 / cqm=2 / deadzone=21,11 / chroma_qp_offset=0 / threads=3 / nr=0 / decimate=0 / mbaff=0 / bframes=3 / b_pyramid=1 / b_adapt=1 / b_bias=0 / direct=3 / wpredb=1 / bime=1 / keyint=250 / keyint_min=25 / scenecut=40(pre) / rc=2pass / bitrate=6110 / ratetol=1.0 / rceq='blurCplx^(1-qComp)' / qcomp=1.00 / qpmin=10 / qpmax=51 / qpstep=4 / cplxblur=20.0 / qblur=0.5 / ip_ratio=1.40 / pb_ratio=1.30 / aq=2:0.30
Language : French
Audio #2
ID : 2
Format : MPEG Audio
Format version : Version 1
Format profile : Layer 3
Codec ID : A_MPEG/L3
Codec ID/Hint : MP3
Duration : 1h 31mn
Bit rate mode : Constant
Bit rate : 192 Kbps
Channel(s) : 2 channels
Sampling rate : 48.0 KHz
Stream size : 125 MiB (3%)
Language : Ukrainian
Скріншоти
Джерело: &
Особиста оцінка: 10 - без зайвих вагань рекомендую всім!
Жандарм і жандарметки / Le Gendarme et les gendarmettes (1982) 720p Ukr


Жандарм і жандарметки / Le Gendarme et les gendarmettes (1982) 720p Ukr




Жанр: комедія, кримінальний
Країна: Франція



Режисер: Тоні Абоянц, Жан Жиро
Актори: Луї де Фюнес, Жак Франсуа, Жан Лефевр, Мішель Модо, Мішель Ґалабрю

Сюжет:
Одна з небагатьох "жандармських" комедій, яка до 1992 року залишилася невідомою нашим кіноглядачам. Крюшо (де Фюнес) та його колеги повинні взяти під свою опіку надісланих до них на стажування дівчат - поліцейських з ногами від шиї. Наші герої шаленіють. Сивина в бороду, біс у ребро. Як на зло, дівчат викрадають невідомі злодії. Честь мундира висить на волосині. Так що є над чим посміятися, враховуючи таланти де Фюнеса.

Тривалість: 01:38:48
Якість:
Відео:
кодек:
розмір кадру: 1280 х 720
бітрейт: 5579 кб/с

Аудіо №1:
мова: українська
переклад: двоголосий закадровий
кодек: MP3
бітрейт: 192 кб/с
Джерело озвучення:
MediaInfo
G:\проекти\Жандарми - Антологія Le Gendarme - Anthology 1964 - 1982 720p Ukr\Жандарм і жандарметки Le Gendarme et les gendarmettes 1982 720p Ukr.mkv
General
Complete name : G:\проекти\Жандарми - Антологія Le Gendarme - Anthology 1964 - 1982 720p Ukr\Жандарм і жандарметки Le Gendarme et les gendarmettes 1982 720p Ukr.mkv
Format : Matroska
File size : 3.98 GiB
Duration : 1h 38mn
Overall bit rate : 5 772 Kbps
Encoded date : UTC 2012-02-25 18:44:47
Writing application : mkvmerge v5.2.0 ('I can't explain') built on Dec 18 2011 18:12:03
Writing library : libebml v1.2.3 + libmatroska v1.3.0
Video #1
ID : 1
Format : AVC
Format/Info : Advanced Video Codec
Format profile : [email protected]
Format settings, CABAC : Yes
Format settings, ReFrames : 6 frames
Muxing mode : Container [email protected]
Codec ID : V_MPEG4/ISO/AVC
Duration : 1h 38mn
Bit rate : 5 465 Kbps
Nominal bit rate : 5 579 Kbps
Width : 1 280 pixels
Height : 720 pixels
Display aspect ratio : 16:9
Frame rate : 23.976 fps
Resolution : 8 bits
Colorimetry : 4:2:0
Scan type : Progressive
Bits/(Pixel*Frame) : 0.247
Stream size : 3.77 GiB (95%)
Title : Release for HDClub
Writing library : core 59 r819M 0414d78
Encoding settings : cabac=1 / ref=6 / deblock=1:-3:-3 / analyse=0x3:0x133 / me=umh / subme=7 / me-prepass=0 / brdo=1 / mixed_ref=1 / me_range=16 / chroma_me=1 / trellis=1 / 8x8dct=1 / cqm=2 / deadzone=21,11 / chroma_qp_offset=0 / threads=3 / nr=0 / decimate=0 / mbaff=0 / bframes=3 / b_pyramid=1 / b_adapt=1 / b_bias=0 / direct=3 / wpredb=1 / bime=1 / keyint=250 / keyint_min=25 / scenecut=40(pre) / rc=2pass / bitrate=5579 / ratetol=1.0 / rceq='blurCplx^(1-qComp)' / qcomp=1.00 / qpmin=10 / qpmax=51 / qpstep=4 / cplxblur=20.0 / qblur=0.5 / ip_ratio=1.40 / pb_ratio=1.30 / aq=2:0.30
Language : French
Audio #2
ID : 2
Format : MPEG Audio
Format version : Version 1
Format profile : Layer 3
Codec ID : A_MPEG/L3
Codec ID/Hint : MP3
Duration : 1h 38mn
Bit rate mode : Constant
Bit rate : 192 Kbps
Channel(s) : 2 channels
Sampling rate : 48.0 KHz
Stream size : 136 MiB (3%)
Language : Ukrainian
Скріншоти
Джерело: &
Особиста оцінка: 10 - без зайвих вагань рекомендую всім!
Джерело: &
Особиста оцінка: 10 - без зайвих вагань рекомендую всім!


Срібний реліз (на рейтинг впливає 50% завантаженого)
 Трекер:    Зареєстрований   

Завантажити / скачати фільм українською



відео для новачків



 Зареєстрований:   2012-02-25 22:00
 Розмір:   23.94 GB 
 Оцінка фільму:   9.9/10 (Голосів: 45)
   
Риф 
VIP


З нами з: 26.04.09
Востаннє: 04.12.16
Повідомлень: 460

2012-02-25 22:16  
Оце так роздача!
DiGen 
Модератор HD та координатор Команди HD
Модератор HD та координатор Команди HD


З нами з: 12.11.09
Востаннє: 24.06.13
Повідомлень: 1452

2012-02-25 22:56  
chaoscor написано:

e Gendarme de St. Tropez (1964) -
Le Gendarme a New York (1965) -
Le Gendarme se marie (1968) -
Le Gendarme En Balade (1970) -
Le gendarme et les extra-terrestres (1978) -
Le Gendarme et les gendarmettes (1982) -

Видалити, бо є в описі. І там воно має бути.

chaoscor написано:

Режисер: Жан Жиро, Тоні Абоянц
Актори: Луї де Фюнес, Мішель Ґалабрю, Женев'єва Ґрад, Клод П'єплю, Марія Паком, Жан Лефевр, Крістіан Марен

Аналогічно.

До першиг частин ріпи криві. Параметри кодування не дуже...

Додано через 1 хвилину 3 секунди:

chaoscor написано:
Title : Release for HDClub
А ось це в МедіаІнфо дає можливість все зрозуміти.

Додано через 1 хвилину 1 секунду:

Ставлю заборону на завантаження до моменту виправлень

Black&White 
Частий відвідувач


З нами з: 05.01.10
Востаннє: 19.11.14
Повідомлень: 43

2012-07-15 01:00  
Дуже дякую за реліз! Happy
Localizator 
Модератор розділів Linux


З нами з: 07.01.11
Востаннє: 31.10.16
Повідомлень: 281

2012-11-25 17:04  
В колекцію!
defman 
Новенький


З нами з: 18.12.12
Востаннє: 26.11.16
Повідомлень: 7

2012-12-25 19:30  
Будь ласка станьте на роздачу!
kino. 
Модератор відео


З нами з: 27.06.10
Востаннє: 05.12.16
Повідомлень: 2900

2012-12-25 19:36  
defman Рейтинг: 0.01 завантаження вам заборонено
keynen 
Новенький


З нами з: 11.01.13
Востаннє: 30.06.16
Повідомлень: 1

2013-01-24 22:53  
класне кіно дякую
DaVinci.ua 
VIP


З нами з: 30.12.11
Востаннє: 04.12.16
Повідомлень: 1089

2013-02-02 02:30  
Супер антологія!!!
NineOneOne 
Новенький


З нами з: 09.11.09
Востаннє: 04.12.16
Повідомлень: 4

2014-07-31 20:40  
Сьогодні Луї виповнилось би 100 років! Дякую за веселе дитинство!
http://uk.wikipedia.org/wiki/%D0%9B%D1%83%D1%97_%D0%B4%D0%B5_%D0%A4%D1%8E%D0%BD%D0%B5%D1%81

Юрій Хмельницький 
Поважний учасник


З нами з: 22.09.14
Востаннє: 05.12.16
Повідомлень: 187

2015-08-11 14:17  
Поправте хтось скріншоти!!!!!!!!!
Ваш часовий пояс: GMT + 2 Години

Нова тема   Відповісти