Завантажити та скачати торренти українською


Скажені пси / Reservoir Dogs (1992) 1080p Ukr/Eng | Sub Eng

Нові коментарі

Нова тема   Відповісти
Автор Повідомлення
Andick 
Модератор відео та координатор поширення


З нами з: 03.11.09
Востаннє: 03.12.16
Повідомлень: 1499

2012-02-25 18:53  
Скажені пси / Reservoir Dogs (1992) 1080p Ukr/Eng | Sub Eng

Скажені пси / Reservoir Dogs (1992) 1080p Ukr/Eng | Sub Eng


Жанр: кримінальний, містика, трилер
Країна: США

Top 250: #67

Кіностудія / кінокомпанія: Live Entertainment, Dog Eat Dog Productions Inc
Режисер: Квентін Тарантіно / Quentin Tarantino
Актори: Гарві Кейтель / Harvey Keitel, Тім Рот / Tim Roth, Майкл Медсен / Michael Madsen, Кріс Пен / Chris Penn, Стів Бушемі / Steve Buscemi, Лоуренс Тірні / Lawrence Tierney, Едвард Бункер / Edward Bunker, Квентін Тарантіно / Quentin Tarantino, Ренді Брукс / Randy Brooks, Кірк Балтз / Kirk Baltz, Стівен Врайт / Steven Wright, Річ Тернер / Rich Turner, Девід Стін / David Steen, Тоні Космо / Tony Cosmo, Стево Полі / Stevo Polyi, та інші.

Сюжет:
Це повинно було стати ідеальним злочином. Задумавши пограбувати ювелірний магазин, кримінальний бос Джо Кебот зібрав разом шістьох досвідчених і абсолютно незнайомих один з одним злочинців. Але з самого початку все пішло не так, і звичайний грабіж перетворився в криваву бійню.

Ріп від WiKi

Тривалість: 01:39:06
Якість: 1080p
Відео:
кодек:
розмір кадру: 1920 х 816
бітрейт: 11.1 Мб/с

Аудіо # 1:
мова: українська
переклад: багатоголосий закадровий
кодек: 5.1
бітрейт: 640 кб/с

Аудіо # 2:
мова: англійська
переклад: оригінал
кодек: 5.1
бітрейт: 1510 кб/с

Аудіо # 3:
мова: англійська
переклад: оригінал (коментарі)
кодек: 2.0
бітрейт: 256 кб/с

Переклад і озвучення виконано:
ТО "Цікава Ідея" на замовлення Hurtom.com

Субтитри:
мова: англійська
тип: програмні (м'які)
формат: *.srt
MediaInfo
General
Unique ID : 178339853874562559919129264076051489686 (0x862B01A908121AB186EE257DD0A0A396)
Complete name : E:\Reservoir.Dogs.1992.BluRay.1080p..-WiKi\Reservoir Dogs (1992) [ukr,eng] 1080p [Hurtom].mkv
Format : Matroska
File size : 9.37 GiB
Duration : 1h 39mn
Overall bit rate : 13.5 Mbps
Movie name : Reservoir Dogs (1992) [ukr,eng] 1080p [Hurtom]
Encoded date : UTC 2012-02-25 16:15:28
Writing application : mkvmerge v5.2.1 ('A Far Off Place') built on Jan 2 2012 23:21:10
Writing library : libebml v1.2.3 + libmatroska v1.3.0

Video
ID : 1
Format : AVC
Format/Info : Advanced Video Codec
Format profile : [email protected]
Format settings, CABAC : Yes
Format settings, ReFrames : 5 frames
Codec ID : V_MPEG4/ISO/AVC
Duration : 1h 39mn
Bit rate : 11.1 Mbps
Width : 1 920 pixels
Height : 816 pixels
Display aspect ratio : 2.35:1
Frame rate : 23.976 fps
Color space : YUV
Chroma subsampling : 4:2:0
Bit depth : 8 bits
Scan type : Progressive
Bits/(Pixel*Frame) : 0.296
Stream size : 7.51 GiB (80%)
Title : Ріп від WiKi
Writing library : core 65 r998M 6768543
Encoding settings : cabac=1 / ref=5 / deblock=1:-2:-1 / analyse=0x3:0x113 / me=umh / subme=6 / psy_rd=1.0:0.0 / mixed_ref=1 / me_range=16 / chroma_me=1 / trellis=1 / 8x8dct=1 / cqm=0 / deadzone=21,11 / chroma_qp_offset=-2 / threads=6 / nr=0 / decimate=1 / mbaff=0 / bframes=16 / b_pyramid=1 / b_adapt=1 / b_bias=0 / direct=3 / wpredb=1 / keyint=250 / keyint_min=25 / scenecut=40(pre) / rc=2pass / bitrate=11124 / ratetol=1.0 / qcomp=0.60 / qpmin=10 / qpmax=51 / qpstep=4 / cplxblur=20.0 / qblur=0.5 / ip_ratio=1.40 / pb_ratio=1.30 / aq=1:1.00
Language : English

Audio #1
ID : 2
Format : AC-3
Format/Info : Audio Coding 3
Mode extension : CM (complete main)
Codec ID : A_AC3
Duration : 1h 39mn
Bit rate mode : Constant
Bit rate : 640 Kbps
Channel(s) : 6 channels
Channel positions : Front: L C R, Side: L R, LFE
Sampling rate : 48.0 KHz
Bit depth : 16 bits
Compression mode : Lossy
Stream size : 455 MiB (5%)
Title : Багатоголосий закадровий (ТО "Цікава Ідея" на замовлення Hurtom.com)
Language : Ukrainian

Audio #2
ID : 3
Format :
Format/Info : Digital Theater Systems
Codec ID : A_DTS
Duration : 1h 39mn
Bit rate mode : Constant
Bit rate : 1 510 Kbps
Channel(s) : 6 channels
Channel positions : Front: L C R, Side: L R, LFE
Sampling rate : 48.0 KHz
Bit depth : 16 bits
Compression mode : Lossy
Stream size : 1.05 GiB (11%)
Title : Оригінал
Language : English

Audio #3
ID : 4
Format : AC-3
Format/Info : Audio Coding 3
Mode extension : CM (complete main)
Codec ID : A_AC3
Duration : 1h 39mn
Bit rate mode : Constant
Bit rate : 256 Kbps
Channel(s) : 2 channels
Channel positions : Front: L R
Sampling rate : 48.0 KHz
Bit depth : 16 bits
Compression mode : Lossy
Stream size : 182 MiB (2%)
Title : Коментарі
Language : English

Text
ID : 5
Format : UTF-8
Codec ID : S_TEXT/UTF8
Codec ID/Info : UTF-8 Plain Text
Language : English
Скріншоти





Переклад і озвучування здійснено в рамках сервісу "Озвучення"
Медіапартнер

Подяка bilenkuyboy за українізований постер

Джерело:
Особиста оцінка: 10 - без зайвих вагань рекомендую всім!


Золотий реліз (завантажене не впливає на рейтинг)
 Трекер:    Зареєстрований   

Завантажити / скачати фільм українською



відео для новачків



 Зареєстрований:   2012-02-25 18:53
 Розмір:   9.37 GB 
 Оцінка фільму:   9.1/10 (Голосів: 16)
   
Інші релізи
   Скажені пси / Reservoir Dogs (1992) [MP4, 640x] apvAltisimo  0 / 0   590 MB   2016-04-06 14:00 
   Скажені пси / Reservoir Dogs (1992) BASTERD-94  1 / 0   1.46 GB   2012-04-15 20:00 
   Скажені пси / Reservoir Dogs (1992) 720p Ukr/Eng | Sub Eng Andick  7 / 0   4.37 GB   2012-02-25 18:32 
   Скажені пси / Reservoir Dogs (1992) Цікава ідея  23 / 0   1.69 GB   2012-02-24 19:28 
bilenkuyboy 
Відео Гуртом - дизайнер
Відео Гуртом - дизайнер


З нами з: 17.06.08
Востаннє: 27.11.16
Повідомлень: 1582

2012-02-25 20:20  
не вантажить..
okzdp 
Поважний учасник


З нами з: 27.05.09
Востаннє: 04.12.16
Повідомлень: 209

2012-02-25 23:50  
Та ні, вантажить...
QUARESMA177 
VIP


З нами з: 27.04.09
Востаннє: 02.12.16
Повідомлень: 415

2012-02-26 20:44  
Andick написано:
Жанр: кримінальний, містика, трилер

А де ж там містика?)

okzdp 
Поважний учасник


З нами з: 27.05.09
Востаннє: 04.12.16
Повідомлень: 209

2012-03-07 22:36  
ага, слушне питання...
imonko 
Відео Гуртом - фільмокрай
Відео Гуртом - фільмокрай


З нами з: 20.07.08
Востаннє: 31.10.16
Повідомлень: 7309

2012-03-07 22:40  
QUARESMA177 написано:
А де ж там містика?)

а вона в тому що Mystery чомусь перекладають як містика)) насправді то є таємниця, таємничість, щодо жанру то детектив

ToxaViking 
Відео Гуртом - субтитрування
Відео Гуртом - субтитрування


З нами з: 01.07.09
Востаннє: 04.12.16
Повідомлень: 271

2012-03-10 11:28  
уууу це просто чудове кіно і нарешті солов'їною, а озвучення з цензурою чи без?
Violator 
VIP


З нами з: 14.04.09
Востаннє: 04.12.16
Повідомлень: 567

2012-03-10 11:45  
а озвучення з цензурою чи без
якщо маєте на увазі "русский мат", то тут він на 98% відсутній...

Konfucius 
Управління
Управління


З нами з: 30.09.07
Востаннє: 04.12.16
Повідомлень: 4740

2012-04-29 21:31  
Andick
Можеш викласти окремо українську доріжку на сервер? Буду вдячний Happy

Andick 
Модератор відео та координатор поширення


З нами з: 03.11.09
Востаннє: 03.12.16
Повідомлень: 1499

2012-04-30 00:00  
Konfucius написано:
Можеш викласти окремо українську доріжку на сервер? Буду вдячний 
ок, сьогодні десь після обіду буде Happy
Ваш часовий пояс: GMT + 2 Години

Нова тема   Відповісти