Завантажити та скачати торренти українською


Скажені пси / Reservoir Dogs (1992) 720p Ukr/Eng | Sub Eng

Нові коментарі

Нова тема   Відповісти
Автор Повідомлення
Andick 
Модератор відео та координатор поширення


З нами з: 03.11.09
Востаннє: 06.12.16
Повідомлень: 1499

2012-02-25 18:32  
Скажені пси / Reservoir Dogs (1992) 720p Ukr/Eng | Sub Eng

Скажені пси / Reservoir Dogs (1992) 720p Ukr/Eng | Sub Eng


Жанр: кримінальний, містика, трилер
Країна: США

Top 250: #67

Кіностудія / кінокомпанія: Live Entertainment, Dog Eat Dog Productions Inc
Режисер: Квентін Тарантіно / Quentin Tarantino
Актори: Гарві Кейтель / Harvey Keitel, Тім Рот / Tim Roth, Майкл Медсен / Michael Madsen, Кріс Пен / Chris Penn, Стів Бушемі / Steve Buscemi, Лоуренс Тірні / Lawrence Tierney, Едвард Бункер / Edward Bunker, Квентін Тарантіно / Quentin Tarantino, Ренді Брукс / Randy Brooks, Кірк Балтз / Kirk Baltz, Стівен Врайт / Steven Wright, Річ Тернер / Rich Turner, Девід Стін / David Steen, Тоні Космо / Tony Cosmo, Стево Полі / Stevo Polyi, та інші.

Сюжет:
Це повинно було стати ідеальним злочином. Задумавши пограбувати ювелірний магазин, кримінальний бос Джо Кебот зібрав разом шістьох досвідчених і абсолютно незнайомих один з одним злочинців. Але з самого початку все пішло не так, і звичайний грабіж перетворився в криваву бійню.

Ріп від WiKi

Тривалість: 01:39:06
Якість: 720p
Відео:
кодек:
розмір кадру: 1280 х 544
бітрейт: 4801 кб/с

Аудіо # 1:
мова: українська
переклад: багатоголосий закадровий
кодек: 5.1
бітрейт: 640 кб/с

Аудіо # 2:
мова: англійська
переклад: оригінал
кодек: 5.1
бітрейт: 640 кб/с

Аудіо # 3:
мова: англійська
переклад: оригінал (коментарі)
кодек: 2.0
бітрейт: 224 кб/с

Переклад і озвучення виконано:
ТО "Цікава Ідея" на замовлення Hurtom.com

Субтитри:
мова: англійська
тип: програмні (м'які)
формат: *.srt
MediaInfo
General
Unique ID : 221617659580234830403556850367317104568 (0xA6BA0238CA730254B51261ED482757B8)
Complete name : E:\Reservoir.Dogs.1992.BluRay.720p..-WiKi\Reservoir Dogs (1992) [ukr,eng] 720p [Hurtom].mkv
Format : Matroska
File size : 4.37 GiB
Duration : 1h 39mn
Overall bit rate : 6 296 Kbps
Movie name : Reservoir Dogs (1992) [ukr,eng] 720p [Hurtom]
Encoded date : UTC 2012-02-25 16:06:28
Writing application : mkvmerge v5.2.1 ('A Far Off Place') built on Jan 2 2012 23:21:10
Writing library : libebml v1.2.3 + libmatroska v1.3.0

Video
ID : 1
Format : AVC
Format/Info : Advanced Video Codec
Format profile : [email protected]
Format settings, CABAC : Yes
Format settings, ReFrames : 8 frames
Codec ID : V_MPEG4/ISO/AVC
Duration : 1h 39mn
Bit rate : 4 801 Kbps
Width : 1 280 pixels
Height : 544 pixels
Display aspect ratio : 2.35:1
Frame rate : 23.976 fps
Color space : YUV
Chroma subsampling : 4:2:0
Bit depth : 8 bits
Scan type : Progressive
Bits/(Pixel*Frame) : 0.288
Stream size : 3.24 GiB (74%)
Title : Ріп від WiKi
Writing library : core 65 r1024M 2652abe
Encoding settings : cabac=1 / ref=8 / deblock=1:-2:-1 / analyse=0x3:0x113 / me=umh / subme=6 / psy_rd=1.0:0.0 / mixed_ref=1 / me_range=16 / chroma_me=1 / trellis=1 / 8x8dct=1 / cqm=0 / deadzone=21,11 / chroma_qp_offset=-2 / threads=12 / nr=0 / decimate=1 / mbaff=0 / bframes=16 / b_pyramid=1 / b_adapt=1 / b_bias=0 / direct=3 / wpredb=1 / keyint=250 / keyint_min=25 / scenecut=40(pre) / rc=2pass / bitrate=4801 / ratetol=1.0 / qcomp=0.60 / qpmin=10 / qpmax=51 / qpstep=4 / cplxblur=20.0 / qblur=0.5 / ip_ratio=1.40 / pb_ratio=1.30 / aq=1:1.00
Language : English

Audio #1
ID : 2
Format : AC-3
Format/Info : Audio Coding 3
Mode extension : CM (complete main)
Codec ID : A_AC3
Duration : 1h 39mn
Bit rate mode : Constant
Bit rate : 640 Kbps
Channel(s) : 6 channels
Channel positions : Front: L C R, Side: L R, LFE
Sampling rate : 48.0 KHz
Bit depth : 16 bits
Compression mode : Lossy
Stream size : 455 MiB (10%)
Title : Багатоголосий закадровий (ТО "Цікава Ідея" на замовлення Hurtom.com)
Language : Ukrainian

Audio #2
ID : 3
Format : AC-3
Format/Info : Audio Coding 3
Mode extension : CM (complete main)
Codec ID : A_AC3
Duration : 1h 39mn
Bit rate mode : Constant
Bit rate : 640 Kbps
Channel(s) : 6 channels
Channel positions : Front: L C R, Side: L R, LFE
Sampling rate : 48.0 KHz
Bit depth : 16 bits
Compression mode : Lossy
Stream size : 455 MiB (10%)
Title : Оригінал
Language : English

Audio #3
ID : 4
Format : AC-3
Format/Info : Audio Coding 3
Mode extension : CM (complete main)
Codec ID : A_AC3
Duration : 1h 39mn
Bit rate mode : Constant
Bit rate : 224 Kbps
Channel(s) : 2 channels
Channel positions : Front: L R
Sampling rate : 48.0 KHz
Bit depth : 16 bits
Compression mode : Lossy
Stream size : 159 MiB (4%)
Title : Коментарі
Language : English

Text
ID : 5
Format : UTF-8
Codec ID : S_TEXT/UTF8
Codec ID/Info : UTF-8 Plain Text
Language : English
Скріншоти





Переклад і озвучування здійснено в рамках сервісу "Озвучення"
Медіапартнер

Подяка bilenkuyboy за українізований постер

Джерело:
Особиста оцінка: 10 - без зайвих вагань рекомендую всім!


Авторський реліз (завантажувати можна без реєстрації)
 Трекер:    Зареєстрований   

Завантажити / скачати фільм українською



відео для новачків



 Зареєстрований:   2012-02-25 18:32
 Розмір:   4.37 GB 
 Оцінка фільму:   9.3/10 (Голосів: 44)
   
Інші релізи
   Скажені пси / Reservoir Dogs (1992) [MP4, 640x] apvAltisimo  0 / 0   590 MB   2016-04-06 14:00 
   Скажені пси / Reservoir Dogs (1992) BASTERD-94  1 / 0   1.46 GB   2012-04-15 20:00 
   Скажені пси / Reservoir Dogs (1992) 1080p Ukr/Eng | Sub Eng Andick  3 / 0   9.37 GB   2012-02-25 18:53 
   Скажені пси / Reservoir Dogs (1992) Цікава ідея  9 / 0   1.69 GB   2012-02-24 19:28 
Anonymous 







2012-02-25 19:05  
SD ріп буде з 6-и канальною доріжкою?
Vasyava 
VIP


З нами з: 25.04.10
Востаннє: 06.12.16
Повідомлень: 310

2012-02-26 16:30  
Супер фільм,і тепер на нашій рідній )))
Sensetivity 
VIP


З нами з: 03.05.11
Востаннє: 03.01.13
Повідомлень: 2019

2012-02-26 21:28  
Цитата:
subme=6 / psy_rd=1.0:0.0 / mixed_ref=1 / me_range=16

Цитата:
Ріп від WiKi

спідріпер цей ваш Вікі...

Sensetivity 
VIP


З нами з: 03.05.11
Востаннє: 03.01.13
Повідомлень: 2019

2012-03-03 10:18  
Фільм галімий трешак.
imonko 
Відео Гуртом - фільмокрай
Відео Гуртом - фільмокрай


З нами з: 20.07.08
Востаннє: 31.10.16
Повідомлень: 7309

2012-03-03 12:45  
Sensetivity написано:
Фільм галімий трешак.

ну якщо очі занадто вузькі...

Sensetivity 
VIP


З нами з: 03.05.11
Востаннє: 03.01.13
Повідомлень: 2019

2012-03-03 15:50  
imonko написано:
ну якщо очі занадто вузькі...

То я японець Wide grin

bohun 
VIP


З нами з: 21.03.09
Востаннє: 07.12.16
Повідомлень: 271

2013-12-03 23:15  
Хоч фільм стилістично і композиційно дуже подібний до Кримінального чтива, як на мене в ньому таки трохи забагато безпідставної жорстокості (взяти хоча б ті знущання з поліцейського). Малувато сюжетних ліній, виглядає досить плоско навіть з фірмовою тарантінівською "нелінійною" манерою оповіді. Шанувальникам Тарантіно обов'язково дивитись, я б поставив 3/5
simalight 
Частий відвідувач


З нами з: 16.11.13
Востаннє: 05.12.16
Повідомлень: 46

2015-06-05 17:57  
Тарантіно був, є і буде геніальним! калюжі крові, багато чорного гумору та вбивств) шедевр!

моя оцінка - 10/10

mangeke 
Відео Гуртом - підтримка та поширення
Відео Гуртом - підтримка та поширення


З нами з: 28.02.12
Востаннє: 01.12.16
Повідомлень: 13

2015-06-20 14:16  
Гарний реліз. Тільки трохи не сподобалося, що кодові імена головних героїв звучали англійською мовою (нп. Mr. Orange), а не з перекладом, так краще відстежувався б сенс. Але це маленькі дрібниці, які, я впевнений, не сподобались тільки мені. Тепер на рахунок самого фільму. Специфічна, цікава праця, хоч на мою думку трохи слабша за кілька пізніх робіт Квентіна. Операторська робота залишає бажати кращого. Та, оскільки це дебютний фільм, не буду говорити лишнього... Варта одноразового перегляду невмируща, кривава класика. Wink (2)
olthik 
Частий відвідувач


З нами з: 02.03.16
Востаннє: 07.12.16
Повідомлень: 33

2016-08-06 13:01  
А де ж "Скажені пси 2015" (2016 р), франція, ніяк не знайду. Може хтось знає?
Separated 
Новенький


З нами з: 07.05.15
Востаннє: 12.10.16
Повідомлень: 3

2016-08-17 14:02  
Перший фільм Тарантино, який я поглянув. У мене немає слів: суперовий, якісний, напружений, оригінальний. Раджу дивитися обов'язково
Ваш часовий пояс: GMT + 2 Години

Нова тема   Відповісти