Завантажити та скачати торренти українською


Врятувати невдаху / Saving Silverman (2001) 720p Ukr/Eng | sub Ukr/Eng

Нові коментарі

Нова тема   Відповісти
Автор Повідомлення
urij546724 
Відео Гуртом - фільмокрай
Відео Гуртом - фільмокрай


З нами з: 16.03.10
Востаннє: 10.12.16
Повідомлень: 5222

2012-02-24 19:46  
Врятувати невдаху / Saving Silverman (2001) 720p Ukr/Eng | sub Ukr/Eng

Альтернативні постери:

Слогани:
«They swore nothing would come between them. Then evil walked in the door.»
«Друзі завжди допоможуть. Навіть коли їх про це не просять.»


Жанр: комедія, романтичний, кримінал
Країна: США (), Австралія ()



Кіностудія / кінокомпанія: Columbia Pictures Corporation, Village Roadshow Pictures, NPV Entertainment
Режисер: Денніс Дуган (Dennis Dugan)
Актори: Стів Зан (Steve Zahn), Джек Блек (Jack Black), Джейсон Біггз (Jason Biggs), Аманда Піт (Amanda Peet), Аманда Детмер (Amanda Detmer), Р. Лі Ермі (R. Lee Ermey), Ніл Даймонд (Neil Diamond)
Усі актори та їх фото:
Стів Зан (Steve Zahn), Джек Блек (Jack Black), Джейсон Біггз (Jason Biggs), Аманда Піт (Amanda Peet), Аманда Детмер (Amanda Detmer), Р. Лі Ермі (R. Lee Ermey), Ніл Даймонд (Neil Diamond), Кайл Гесс (Kyle Gass), Норман Армор (Norman Armour), Колін Фу (Colin Foo), Кріс Логан (Chris Logan), Есме Ламберт (Esme Lambert), Макс Фомітчев (Max Fomitchev), Тоні Парсонс (Tony Parsons), Бретт Армстронг (Brett Armstrong), Патрік Фріммер (Patrick Pfrimmer), Френк Л. Фрезіер (Frank L. Frazier), Ендрю МакІлрой (Andrew McIlroy), Оскар Гонсалвес (Oscar Goncalves), Лілліен Карлсон (Lillian Carlson), Елі Рейнджер (Eli Ranger), Іван Юркев (Ivan Jurcev), Девін Дуглас Дрюіц (Devin Douglas Drewitz), Карлі МакКіліп (Carly McKillip), Карла Бодро (Carla Boudreau), Філ Трасоліні (Phil Trasolini), Девід Ніл (David Neale), Мері Енн Сколл (Mary Ann Skoll), Біскі Гугуш (Biski Gugushe), Гас Лінч (Gus Lynch), Марк Аарон Вагнер (Mark Aaron Wagner), Стівен МакМайкл (Steven McMichael), Ларрі Лам (Larry Lam), Стефен Чанг (Stephen Chang), Еліза Мербо (Eliza Murbach), Блейк Стовін (Blake Stovin), Бріттані Молдован (Brittany Moldowan), Кетлін Дючейрм (Katlyn Ducharme), Майкл Робердс (Michael Roberds), Френк Аш (Frank Hache), Одеса Манро (Odessa Munroe), Трейсі Трумен (Tracy Trueman), Ніколь Роберт (Nicole Robert), Ненсі Джей. Ліллей (Nancy J. Lilley), Девід Мілреа (David Mylrea), Даріо Делакіо (Dario Delacio), Єлена Джонсон (Eleana Johnson), Маргарет Райан (Margaret Ryan), Ловела Джоті (Lowela Jotie), Шаз Беннетт (Shaz Bennett), Тереза Кумб (Theresa Coombe), Лі Хіларі (Leigh Hilary), Дженніфер Армстронг (Jennifer Armstrong), Лінда Бернат (Linda Bernath), Кен Камрі (Ken Camroux), Девід Б. Левінсон (David B. Levinson), Шон О. Робертс (Sean O. Roberts), Джаред ван Снелленберг (Jared Van Snellenberg), Денніс Дуган (Dennis Dugan), Ліза Ґагно (Lisa Gagno), Річард Кляйн (Richard Kline), Сьюзі Штінгль (Suzi Stingl)






Сюжет:
Друзі допоможуть. Навіть коли їх про це не просять. Коли Джей Ді і Вейн виявляють, що їх добрий друг Даррен Сільверман зібрався зробити найжахливішу помилку у своєму житті - піти до вівтаря зі стервозною красунею Джудіт, вони тут же замишляють змову порятунку свого невдачливого приятеля з лап злої і амбітної дівчини.

До нещастя, вони самі не можуть похвалитися вмінням все робити правильно і без осічок, тому не знаходять нічого кращого, як зіграти в Джеймса Бонда і викрасти Джудіт. А в її відсутність звести Даррена з його колишньою шкільною любов'ю, милою і доброю Сенді.

Божевільний план. Але, можливо, саме божевільні ідеї і повинні спрацьовувати в таких випадках? І ось, дуже ризикована операція "Врятувати від нареченої" починається!...


Бюджет: 22 000 000 доларів
Маркетинг: 18 000 000 доларів
Збори в США: 19 402 030 доларів
Збори у світі: 26 086 706 доларів
Назва фільму у інших країнах
Evil Woman
Австралія / Данія / Європа (Англійська назва) / Філіппіни (Англійська назва) / Великобританія / США (робоча назва)


Tan perversa como el diablo
Аргентина / Колумбія


Assatanata
Італія


Bons copains, mauvais plan
Канада (Французька назва)


Diablesse
Франція


En djävul till flickvän
Швеція


Material Woman
Японія (відеоназва) (Англійська назва)


Mulher Infernal
Бразилія


Nő a baj
Угорщина


Piru naiseksi
Фінляндія


Tres idiotas y una bruja
Іспанія


Twarda laska
Польща


Um Diabo de Miúda
Португалія


Zickenterror - Der Teufel ist eine Frau
Німеччина


Спасти от невесты / Стерва / Спасти Сильвермана
Росія
Чи знаєте ви, що...
1) У рекламному ролику фільму герою Стіва Зана примальювали цифровим способом блакитні труси, оскільки Американській кіноасоціації (MPAA) цей епізод видався надто відвертим.
2) Джей Ді (Джек Блек) порівнює Джудіт (Аманда Піт) з Ганнібалом Лектором. Цікаво, що «Врятувати невдаху» і «Ганнібал» були випущені в США в один і той же день.
3) Режисер фільму Денніс Дуган з'явився в епізоді-камео, зігравши футбольного суддю.
Media info
Format : Matroska
Format version : Version 2
File size : 4.37 GiB
Duration : 1h 35mn
Overall bit rate : 6 529 Kbps
Movie name : Saving Silverman (2001) [ukr_eng_AC3_5.1] 720p [Hurtom] by urij546724
Encoded date : UTC 2012-02-24 18:00:58
Writing application : mkvmerge v2.9.7 ('Tenderness') built on Jul 1 2009 18:43:35
Writing library : libebml v0.7.7 + libmatroska v0.8.1

Video
ID : 1
Format : AVC
Format/Info : Advanced Video Codec
Format profile : [email protected]
Format settings, CABAC : Yes
Format settings, ReFrames : 9 frames
Codec ID : V_MPEG4/ISO/AVC
Duration : 1h 35mn
Bit rate : 5 503 Kbps
Nominal bit rate : 5 881 Kbps
Width : 1 280 pixels
Height : 720 pixels
Display aspect ratio : 16:9
Frame rate : 23.976 fps
Color space : YUV
Chroma subsampling : 4:2:0
Bit depth : 8 bits
Scan type : Progressive
Bits/(Pixel*Frame) : 0.249
Stream size : 3.69 GiB (84%)
Title : www.hurtom.com by urij546724
Writing library : core 60 r895M 16b8f79
Encoding settings : cabac=1 / ref=9 / deblock=1:-3:-3 / analyse=0x3:0x113 / me=umh / subme=7 / rdcmp=psy / brdo=1 / mixed_ref=1 / me_range=32 / chroma_me=1 / trellis=2 / 8x8dct=1 / cqm=0 / deadzone=21,11 / chroma_qp_offset=0 / threads=3 / nr=0 / decimate=0 / mbaff=0 / bframes=3 / b_pyramid=1 / b_adapt=1 / b_bias=0 / direct=3 / wpredb=1 / bime=1 / keyint=480 / keyint_min=24 / scenecut=40(pre) / rc=2pass / bitrate=5881 / ratetol=2.0 / rceq='blurCplx^(1-qComp)' / qcomp=1.00 / qpmin=10 / qpmax=51 / qpstep=4 / cplxblur=20.0 / qblur=0.5 / vbv_maxrate=50000 / vbv_bufsize=14000 / ip_ratio=1.40 / pb_ratio=1.30 / aq=2:1.00
Language : English
Default : Yes
Forced : No

Audio #1
ID : 2
Format : AC-3
Format/Info : Audio Coding 3
Mode extension : CM (complete main)
Codec ID : A_AC3
Duration : 1h 35mn
Bit rate mode : Constant
Bit rate : 448 Kbps
Channel(s) : 6 channels
Channel positions : Front: L C R, Side: L R, LFE
Sampling rate : 48.0 KHz
Bit depth : 16 bits
Compression mode : Lossy
Stream size : 307 MiB (7%)
Title : Українська доріжка
Language : Ukrainian
Default : Yes
Forced : No

Audio #2
ID : 3
Format : AC-3
Format/Info : Audio Coding 3
Mode extension : CM (complete main)
Codec ID : A_AC3
Duration : 1h 35mn
Bit rate mode : Constant
Bit rate : 448 Kbps
Channel(s) : 6 channels
Channel positions : Front: L C R, Side: L R, LFE
Sampling rate : 48.0 KHz
Bit depth : 16 bits
Compression mode : Lossy
Stream size : 307 MiB (7%)
Title : Англійська доріжка
Language : English
Default : No
Forced : No

Text #1
ID : 4
Format : UTF-8
Codec ID : S_TEXT/UTF8
Codec ID/Info : UTF-8 Plain Text
Title : Українські субтитри
Language : Ukrainian
Default : Yes
Forced : No

Text #2
ID : 5
Format : UTF-8
Codec ID : S_TEXT/UTF8
Codec ID/Info : UTF-8 Plain Text
Title : Англійські субтитри
Language : English
Default : No
Forced : No
Тривалість: 01:32:20
Якість: 720p
Відео:
кодек: H264
розмір кадру: 1280 х 720
бітрейт: 5503 кб/с
частота кадрів: 23.976 к/с (fps)
примітка: у фільмі вирізано кінцеві титри

Аудіо #1:
мова: українська
переклад: двоголосий закадровий
кодек: 5.1
бітрейт: 448 кб/с
озвучено: на замовлення

Аудіо #2:
мова: англійська
переклад: оригінал
кодек: 5.1
бітрейт: 448 кб/с

Аудіо #3 (окремо):
мова: українська
переклад: двоголосий закадровий
кодек: 2.0
бітрейт: 192 кб/с
озвучено: ТТП для Інтер
завантажити з сервера: назва Saving Silverman (2001).01h32m20s.[TTPforInter.2.0-192].23.976fps.[Hurtom-urij546724].

Субтитри #1:
мова: українська
тип: програмні (м'які)
формат: *.srt
переклад: з російської urij546724

Субтитри #2:
мова: англійська
тип: програмні (м'які)
формат: *.srt

Скріншоти:


Трейлер:
Семпл
Джерело 1_________Джерело 2_________Джерело 3
У випадку, якщо з усіх джерел семпл видалять, прохання повідомити мені у ПРИВАТ


Подяка:

1. Пану dvorsky за запис звуку з ТБ.


Джерело: &

Особиста оцінка: Не дивився.

Реліз не зберігатиму. Видалю після появи кількох сідерів.


Срібний реліз (на рейтинг впливає 50% завантаженого)
 Трекер:    Зареєстрований   

Завантажити / скачати фільм українською



відео для новачків



 Зареєстрований:   2012-02-24 23:57
 Розмір:   4.37 GB 
 Оцінка фільму:   6/10 (Голосів: 9)
 Прохання залишати коментарі і не тікати з роздачі.
   
Інші релізи
Ваш часовий пояс: GMT + 2 Години

Нова тема   Відповісти