Завантажити та скачати торренти українською


У гонитві за щастям / The Pursuit of Happyness (2006) 720p Ukr/Eng | Sub Eng

Нові коментарі

Нова тема   Відповісти
Автор Повідомлення
braveboy 
Відео Гуртом - команда HD
Відео Гуртом - команда HD


З нами з: 15.06.10
Востаннє: 29.10.16
Повідомлень: 958

2012-02-24 08:42  

У гонитві за щастям / The Pursuit of Happyness (2006) 720p Ukr/Eng | Sub Eng




Жанр: драма, біографічний
Країна: США



Кіностудія / кінокомпанія: Columbia Pictures Corporation
Режисер: Габріель Муччіно
Актори: Вілл Сміт ( Will Smith ) Джейден Сміт ( Jaden Smith ) Тенді Ньютон ( Thandie Newton ), Брайан Хау ( Brian Howe ), Джеймс Карен ( James Karen ), Ден Кастелланета ( Dan Castellaneta ), Курт Фуллер ( Kurt Fuller ), Такайо Фішер ( Takayo Fischer ), Кевін Уест ( Kevin West ), Джордж Чунг ( George Cheung )


Сюжет:
Кріс Гарднер – батько-одинак. Виховуючи п'ятирічного сина, Кріс щосили прагне зробити так, щоб дитина росла щасливою. Працюючи продавцем, він не може сплатити квартиру, і їх виселяють. Опинившись на вулиці, але не бажаючи здаватися, батько влаштовується фахівцем в брокерську компанію. Тільки і там його прибутки далекі від нормальних. Але Кріс присягнувся собі в щоб-то не стало виростити сина, і ніякі труднощі його не зупинять.
Нагороди


Оскар, 2007 рік

Номінації (1):
* Краща чоловіча роль (Уілл Сміт)

Золотий глобус, 2007 рік

Номінації (2):
* Краща чоловіча роль (драма) (Уілл Сміт)
* Краща пісня - «A Father's Way»

Премія каналу «MTV», 2007 рік

Переможець (1):
* Прорив року (Джейден Сміт)

Номінації (1):
* Кращий актор (Уілл Сміт)
Тривалість: 01:57:27
Якість: 720p
Відео:
кодек:
розмір кадру: 1280 х 534
бітрейт: 4234 кб/с

Аудіо # 1:
мова: українська
переклад: професійний дубльований
кодек: 5.1
бітрейт: 448 кб/с

Аудіо # 2:
мова: англійська
переклад: оригінал
кодек: 5.1
бітрейт: 640 кб/с

Джерело озвучення:


Субтитри:
мова: англійська
тип: програмні (м'які)
формат: *.srt
log

[info]: frame I:1124 Avg QP:14.99 size:111747
[info]: frame P:40296 Avg QP:17.98 size: 40859
[info]: frame B:127540 Avg QP:20.00 size: 15327
[info]: consecutive B-frames: 2.5% 3.9% 9.4% 28.6% 18.5% 31.9% 5.2%
[info]: mb I I16..4: 9.8% 69.8% 20.4%
[info]: mb P I16..4: 1.8% 14.1% 2.9% P16..4: 35.2% 21.4% 14.6% 1.7% 0.5% skip: 7.8%
[info]: mb B I16..4: 0.2% 2.1% 0.4% B16..8: 41.2% 14.3% 4.1% direct: 5.5% skip:32.3% L0:43.4% L1:44.9% BI:11.7%
[info]: 8x8 transform intra:75.8% inter:60.4%
[info]: coded y,uvDC,uvAC intra: 90.1% 84.4% 58.7% inter: 34.9% 27.3% 6.7%
[info]: i16 v,h,dc,p: 27% 12% 7% 54%
[info]: i8 v,h,dc,ddl,ddr,vr,hd,vl,hu: 14% 8% 4% 10% 14% 14% 13% 12% 11%
[info]: i4 v,h,dc,ddl,ddr,vr,hd,vl,hu: 15% 8% 3% 9% 15% 15% 13% 11% 12%
[info]: i8c dc,h,v,p: 39% 22% 21% 19%
[info]: Weighted P-Frames: Y:2.8% UV:1.1%
[info]: ref P L0: 45.0% 11.5% 19.1% 6.8% 6.4% 4.1% 4.3% 2.5% 0.3% 0.0%
[info]: ref B L0: 74.8% 12.0% 5.7% 3.3% 2.3% 1.3% 0.6%
[info]: ref B L1: 93.6% 6.4%
[info]: kb/s:4230.85
MediaInfo
General
Unique ID : 206982226861669019502591456179815279483 (0x9BB753AD8C511E599847861B53116B7B)
Complete name : E:\Temp\The Pursuit of Happyness (2006)[Ukr,Eng Sub Eng] 720p [HURTOM] by braveboy.mkv
Format : Matroska
Format version : Version 2
File size : 4.36 GiB
Duration : 1h 57mn
Overall bit rate : 5 320 Kbps
Movie name : The Pursuit of Happyness (2006) 720p by braveboy
Encoded date : UTC 2012-02-24 05:00:23
Writing application : mkvmerge v5.0.1 ('Es ist Sommer') built on Oct 9 2011 11:55:43
Writing library : libebml v1.2.2 + libmatroska v1.3.0
Attachment : Yes / Yes

Video
ID : 1
Format : AVC
Format/Info : Advanced Video Codec
Format profile : [email protected]
Format settings, CABAC : Yes
Format settings, ReFrames : 8 frames
Codec ID : V_MPEG4/ISO/AVC
Duration : 1h 57mn
Bit rate : 4 234 Kbps
Width : 1 280 pixels
Height : 534 pixels
Display aspect ratio : 2.40:1
Frame rate : 23.976 fps
Color space : YUV
Chroma subsampling : 4:2:0
Bit depth : 8 bits
Scan type : Progressive
Bits/(Pixel*Frame) : 0.258
Stream size : 3.39 GiB (78%)
Title : The Pursuit of Happyness (2006) 720p by braveboy
Writing library : core 120 r2120 0c7dab9
Encoding settings : cabac=1 / ref=8 / deblock=1:-3:-3 / analyse=0x3:0x133 / me=umh / subme=9 / psy=1 / psy_rd=0.80:0.00 / mixed_ref=1 / me_range=32 / chroma_me=1 / trellis=1 / 8x8dct=1 / cqm=0 / deadzone=21,11 / fast_pskip=0 / chroma_qp_offset=-2 / threads=3 / sliced_threads=0 / nr=0 / decimate=1 / interlaced=0 / bluray_compat=0 / constrained_intra=0 / bframes=6 / b_pyramid=2 / b_adapt=2 / b_bias=0 / direct=1 / weightb=1 / open_gop=0 / weightp=2 / keyint=240 / keyint_min=24 / scenecut=40 / intra_refresh=0 / rc_lookahead=40 / rc=2pass / mbtree=1 / bitrate=4234 / ratetol=1.0 / qcomp=0.60 / qpmin=0 / qpmax=69 / qpstep=4 / cplxblur=20.0 / qblur=0.5 / ip_ratio=1.40 / aq=1:1.00
Default : Yes
Forced : No

Audio #1
ID : 2
Format : AC-3
Format/Info : Audio Coding 3
Mode extension : CM (complete main)
Codec ID : A_AC3
Duration : 1h 57mn
Bit rate mode : Constant
Bit rate : 448 Kbps
Channel(s) : 6 channels
Channel positions : Front: L C R, Side: L R, LFE
Sampling rate : 48.0 KHz
Bit depth : 16 bits
Compression mode : Lossy
Stream size : 376 MiB (8%)
Title : 5.1 @ 448 kbps
Language : Ukrainian
Default : Yes
Forced : No

Audio #2
ID : 3
Format : AC-3
Format/Info : Audio Coding 3
Mode extension : CM (complete main)
Codec ID : A_AC3
Duration : 1h 57mn
Bit rate mode : Constant
Bit rate : 640 Kbps
Channel(s) : 6 channels
Channel positions : Front: L C R, Side: L R, LFE
Sampling rate : 48.0 KHz
Bit depth : 16 bits
Compression mode : Lossy
Stream size : 538 MiB (12%)
Title : 5.1 @ 640 kbps
Language : English
Default : No
Forced : No

Text
ID : 4
Format : UTF-8
Codec ID : S_TEXT/UTF8
Codec ID/Info : UTF-8 Plain Text
Title : Full
Language : English
Default : No
Forced : No

Menu
00:00:00.000 : en:00:00:00.000
00:05:09.017 : en:00:05:09.017
00:12:36.255 : en:00:12:36.255
00:22:25.553 : en:00:22:25.553
00:28:09.897 : en:00:28:09.897
00:33:33.929 : en:00:33:33.929
00:41:18.434 : en:00:41:18.434
00:48:15.518 : en:00:48:15.518
00:55:49.513 : en:00:55:49.513
01:02:17.233 : en:01:02:17.233
01:09:20.365 : en:01:09:20.365
01:17:49.456 : en:01:17:49.456
01:24:34.236 : en:01:24:34.236
01:33:57.298 : en:01:33:57.298
01:41:19.240 : en:01:41:19.240
01:48:30.129 : en:01:48:30.129
Скріншоти
Source vs Encode




720p by braveboy
Цитата:

* Source: The Pursuit of Happyness (2006) Blu-ray CEE 1080p AVC DD5.1

* Збережено оригінальні чаптери як на Blu-Ray

Особиста оцінка: 10 - без зайвих вагань рекомендую всім!
Користувачам ОС Windows рекомендується переглядати через Media Player Classic або VLC
Для того щоб видалити непотрібну доріжку чи субтитри користуємось програмою MKVtoolnix інструкція тут



 Трекер:    Зареєстрований   

Завантажити / скачати фільм українською



відео для новачків



 Зареєстрований:   2012-02-24 08:42
 Розмір:   4.36 GB 
 Оцінка фільму:   9.8/10 (Голосів: 57)
   
Інші релізи
skuline 
Свій


З нами з: 17.12.11
Востаннє: 10.12.16
Повідомлень: 114

2013-05-08 19:56  
Фільм про життя , як воно є -варто дивитись
Kovex 
Відео Гуртом - підтримка та поширення
Відео Гуртом - підтримка та поширення


З нами з: 01.09.09
Востаннє: 11.12.16
Повідомлень: 402

2016-08-10 04:06  
Здалося трохи затягнутим і деякі речі просто добивали...
я розумію американську звичку не брати багато готівки, але продавши два останніх сканера і розраховуючи жити тільки на ці гроші, чому зразу не заплатити за проживання? А дочекатись, щоб їх забрала податкова. Дивно чому не проплатити на місяць\два наперед, тим більше на великі терміни із олатою наперед там зазвичай ще й знижку дають. Чи що завадило зробити зламаний сканер в перший день? Хотіли більше драми?

Ваш часовий пояс: GMT + 2 Години

Нова тема   Відповісти