Завантажити та скачати торренти українською


Berkut - Дискографія (3 альбоми) (2005-2010) [FLAC] | Folk-Rock

Нові коментарі

Нова тема   Відповісти
Останній раз роздавалося Myfordownloads (2016-10-05)
Автор Повідомлення
ssTAss 
Модератор музики


З нами з: 05.07.08
Востаннє: 06.12.16
Повідомлень: 10946

2012-02-23 00:04  
Berkut - Дискографія (3 альбоми) (2005-2010) [FLAC] | Folk-Rock

Berkut - Дискографія (3 альбоми) (2005-2010) [FLAC] | Folk-Rock

Стиль: Folk-Rock
Країна, місто: Польща, Ольштин
Сайти: Офіційний сайт
Видавець: STUDIO "X" Olsztyn
Виконавці:
Павло Ґерчак – вокал
Славомир Хмарич – акордеон
Даріуш Ґендзіерскі – трубка
Артур Рудель – електрична гітара
Михайло Шиманек – бас-гітара
Ігор Козубель – ударні інструменти
Альбоми:
2005 - Zli Pryvyczky

Berkut - Дискографія (3 альбоми) (2005-2010) [FLAC] | Folk-Rock

Пісні:
    1. Zli pryvyczky
    2. Kazhut ludy
    3. Berkut
    4. QkuryQ
    5. Zhasly zori
    6. Moji divczatka
    7. Pisliazawtra
    8. Svoja divczyna
    9. Oj des' u poli
    10. Manyt'
    11. Mazury
    12. Czaj
    13. Wsi My razom (Z nahody Pomaran'chevoi revolutsii)

Тривалість: 00:55:45
Бітрейт: 1006 кб/с
log
Exact Audio Copy V1.0 beta 3 from 29. August 2011

EAC extraction logfile from 27. December 2011, 20:19

Berkut / Zli pryvyczky

Used drive : HL-DT-STDVDRAM GSA-T20N Adapter: 0 ID: 0

Read mode : Secure
Utilize accurate stream : Yes
Defeat audio cache : Yes
Make use of C2 pointers : No

Read offset correction : 667
Overread into Lead-In and Lead-Out : No
Fill up missing offset samples with silence : Yes
Delete leading and trailing silent blocks : No
Null samples used in CRC calculations : Yes
Used interface : Native Win32 interface for Win NT & 2000
Gap handling : Appended to previous track

Used output format : User Defined Encoder
Selected bitrate : 128 kBit/s
Quality : High
Add ID3 tag : No
Command line compressor : C:\Program Files\Exact Audio Copy\FLAC\FLAC.EXE
Additional command line options : -V -8 -T "Date=%year%" -T "Genre=%genre%" %source%

TOC of the extracted CD

Track | Start | Length | Start sector | End sector
---------------------------------------------------------
1 | 0:00.00 | 3:10.00 | 0 | 14249
2 | 3:10.00 | 4:05.35 | 14250 | 32659
3 | 7:15.35 | 3:51.40 | 32660 | 50024
4 | 11:07.00 | 3:38.27 | 50025 | 66401
5 | 14:45.27 | 5:48.29 | 66402 | 92530
6 | 20:33.56 | 3:34.26 | 92531 | 108606
7 | 24:08.07 | 4:46.26 | 108607 | 130082
8 | 28:54.33 | 3:38.59 | 130083 | 146491
9 | 32:33.17 | 5:16.35 | 146492 | 170226
10 | 37:49.52 | 3:12.18 | 170227 | 184644
11 | 41:01.70 | 4:29.36 | 184645 | 204855
12 | 45:31.31 | 5:15.26 | 204856 | 228506
13 | 50:46.57 | 4:57.70 | 228507 | 250851

Track 1

Filename C:\Users\User\Documents\3456\Berkut - 2005 - Zli Pryvyczky [FLAC]\01. Berkut - Zli pryvyczky (Zli pryvyczky).wav

Pre-gap length 0:00:02.00

Peak level 100.0 %
Extraction speed 2.3 X
Track quality 100.0 %
Test CRC 96B0205A
Copy CRC 96B0205A
Track not present in AccurateRip database
Copy OK

Track 2

Filename C:\Users\User\Documents\3456\Berkut - 2005 - Zli Pryvyczky [FLAC]\02. Berkut - Kazhut ludy (Zli pryvyczky).wav

Peak level 100.0 %
Extraction speed 2.6 X
Track quality 100.0 %
Test CRC FEFB50F1
Copy CRC FEFB50F1
Track not present in AccurateRip database
Copy OK

Track 3

Filename C:\Users\User\Documents\3456\Berkut - 2005 - Zli Pryvyczky [FLAC]\03. Berkut - Berkut (Zli pryvyczky).wav

Peak level 100.0 %
Extraction speed 2.8 X
Track quality 100.0 %
Test CRC 4466D78E
Copy CRC 4466D78E
Track not present in AccurateRip database
Copy OK

Track 4

Filename C:\Users\User\Documents\3456\Berkut - 2005 - Zli Pryvyczky [FLAC]\04. Berkut - QkuryQ (Zli pryvyczky).wav

Peak level 100.0 %
Extraction speed 2.9 X
Track quality 100.0 %
Test CRC FC661968
Copy CRC FC661968
Track not present in AccurateRip database
Copy OK

Track 5

Filename C:\Users\User\Documents\3456\Berkut - 2005 - Zli Pryvyczky [FLAC]\05. Berkut - Zhasly zori (Zli pryvyczky).wav

Peak level 100.0 %
Extraction speed 3.3 X
Track quality 100.0 %
Test CRC D740FD3F
Copy CRC D740FD3F
Track not present in AccurateRip database
Copy OK

Track 6

Filename C:\Users\User\Documents\3456\Berkut - 2005 - Zli Pryvyczky [FLAC]\06. Berkut - Moji divczatka (Zli pryvyczky).wav

Peak level 100.0 %
Extraction speed 3.3 X
Track quality 100.0 %
Test CRC F883602D
Copy CRC F883602D
Track not present in AccurateRip database
Copy OK

Track 7

Filename C:\Users\User\Documents\3456\Berkut - 2005 - Zli Pryvyczky [FLAC]\07. Berkut - Pisliazawtra (Zli pryvyczky).wav

Peak level 100.0 %
Extraction speed 3.5 X
Track quality 100.0 %
Test CRC EF1E79EB
Copy CRC EF1E79EB
Track not present in AccurateRip database
Copy OK

Track 8

Filename C:\Users\User\Documents\3456\Berkut - 2005 - Zli Pryvyczky [FLAC]\08. Berkut - Svoja divczyna (Zli pryvyczky).wav

Peak level 100.0 %
Extraction speed 3.1 X
Track quality 99.9 %
Test CRC 98374FB0
Copy CRC 98374FB0
Track not present in AccurateRip database
Copy OK

Track 9

Filename C:\Users\User\Documents\3456\Berkut - 2005 - Zli Pryvyczky [FLAC]\09. Berkut - Oj des' u poli (Zli pryvyczky).wav

Peak level 100.0 %
Extraction speed 4.0 X
Track quality 100.0 %
Test CRC FD315D93
Copy CRC FD315D93
Track not present in AccurateRip database
Copy OK

Track 10

Filename C:\Users\User\Documents\3456\Berkut - 2005 - Zli Pryvyczky [FLAC]\10. Berkut - Manyt' (Zli pryvyczky).wav

Peak level 100.0 %
Extraction speed 3.3 X
Track quality 99.9 %
Test CRC 9BDF0163
Copy CRC 9BDF0163
Track not present in AccurateRip database
Copy OK

Track 11

Filename C:\Users\User\Documents\3456\Berkut - 2005 - Zli Pryvyczky [FLAC]\11. Berkut - Mazury (Zli pryvyczky).wav

Peak level 100.0 %
Extraction speed 4.1 X
Track quality 100.0 %
Test CRC 98A7CCBB
Copy CRC 98A7CCBB
Track not present in AccurateRip database
Copy OK

Track 12

Filename C:\Users\User\Documents\3456\Berkut - 2005 - Zli Pryvyczky [FLAC]\12. Berkut - Czaj (Zli pryvyczky).wav

Peak level 100.0 %
Extraction speed 4.3 X
Track quality 100.0 %
Test CRC 1CD0F607
Copy CRC 1CD0F607
Track not present in AccurateRip database
Copy OK

Track 13

Filename C:\Users\User\Documents\3456\Berkut - 2005 - Zli Pryvyczky [FLAC]\13. Berkut - Wsi My razom (Zli pryvyczky).wav

Peak level 100.0 %
Extraction speed 4.6 X
Track quality 100.0 %
Test CRC EBA2892D
Copy CRC EBA2892D
Track not present in AccurateRip database
Copy OK

None of the tracks are present in the AccurateRip database

No errors occurred

End of status report

==== Log checksum 0710E3A9C2ECCE121F191F0F860E6F5CF48F94726638893E0CD20A1ADFB44ECD ====
AUDIOCHECKER
AUDIOCHECKER v2.0 beta (build 457) - by Dester - [email protected]
~~~~~~~~~~~~~~~~~~~~~~~~~~~~~~~~~~

Started at: вторник, 27. 12. 2011. - 20:23.57
13 files found

01 -===- C:\Users\User\Documents\3456\Berkut - 2005 - Zli Pryvyczky [FLAC]\01. Berkut - Zli pryvyczky (Zli pryvyczky).flac
Extracted successfully
Conclusion: this track is CDDA with probability 100%
Tempfile successfully deleted.

02 -===- C:\Users\User\Documents\3456\Berkut - 2005 - Zli Pryvyczky [FLAC]\02. Berkut - Kazhut ludy (Zli pryvyczky).flac
Extracted successfully
Conclusion: this track is CDDA with probability 100%
Tempfile successfully deleted.

03 -===- C:\Users\User\Documents\3456\Berkut - 2005 - Zli Pryvyczky [FLAC]\03. Berkut - Berkut (Zli pryvyczky).flac
Extracted successfully
Conclusion: this track is CDDA with probability 100%
Tempfile successfully deleted.

04 -===- C:\Users\User\Documents\3456\Berkut - 2005 - Zli Pryvyczky [FLAC]\04. Berkut - QkuryQ (Zli pryvyczky).flac
Extracted successfully
Conclusion: this track is CDDA with probability 100%
Tempfile successfully deleted.

05 -===- C:\Users\User\Documents\3456\Berkut - 2005 - Zli Pryvyczky [FLAC]\05. Berkut - Zhasly zori (Zli pryvyczky).flac
Extracted successfully
Conclusion: this track is CDDA with probability 99%
Tempfile successfully deleted.

06 -===- C:\Users\User\Documents\3456\Berkut - 2005 - Zli Pryvyczky [FLAC]\06. Berkut - Moji divczatka (Zli pryvyczky).flac
Extracted successfully
Conclusion: this track is CDDA with probability 100%
Tempfile successfully deleted.

07 -===- C:\Users\User\Documents\3456\Berkut - 2005 - Zli Pryvyczky [FLAC]\07. Berkut - Pisliazawtra (Zli pryvyczky).flac
Extracted successfully
Conclusion: this track is CDDA with probability 100%
Tempfile successfully deleted.

08 -===- C:\Users\User\Documents\3456\Berkut - 2005 - Zli Pryvyczky [FLAC]\08. Berkut - Svoja divczyna (Zli pryvyczky).flac
Extracted successfully
Conclusion: this track is CDDA with probability 100%
Tempfile successfully deleted.

09 -===- C:\Users\User\Documents\3456\Berkut - 2005 - Zli Pryvyczky [FLAC]\09. Berkut - Oj des' u poli (Zli pryvyczky).flac
Extracted successfully
Conclusion: this track is CDDA with probability 100%
Tempfile successfully deleted.

10 -===- C:\Users\User\Documents\3456\Berkut - 2005 - Zli Pryvyczky [FLAC]\10. Berkut - Manyt' (Zli pryvyczky).flac
Extracted successfully
Conclusion: this track is CDDA with probability 100%
Tempfile successfully deleted.

11 -===- C:\Users\User\Documents\3456\Berkut - 2005 - Zli Pryvyczky [FLAC]\11. Berkut - Mazury (Zli pryvyczky).flac
Extracted successfully
Conclusion: this track is CDDA with probability 100%
Tempfile successfully deleted.

12 -===- C:\Users\User\Documents\3456\Berkut - 2005 - Zli Pryvyczky [FLAC]\12. Berkut - Czaj (Zli pryvyczky).flac
Extracted successfully
Conclusion: this track is CDDA with probability 100%
Tempfile successfully deleted.

13 -===- C:\Users\User\Documents\3456\Berkut - 2005 - Zli Pryvyczky [FLAC]\13. Berkut - Wsi My razom (Zli pryvyczky).flac
Extracted successfully
Conclusion: this track is CDDA with probability 100%
Tempfile successfully deleted.

Finished at: вторник, 27. 12. 2011. - 20:32.59 (operation time: 0:09.02)
2007 - Czasu ne Marnuy

Berkut - Дискографія (3 альбоми) (2005-2010) [FLAC] | Folk-Rock

Пісні:
    1. Hulaj sokole
    2. Konopianyj blues
    3. A niczka
    4. Dieta
    5. Miasto drimaje
    6. Holodno
    7. Nese Hala wodu
    8. Romans
    9. Oj Mariczko
    10. Daj mylaja
    11. Kozacze ne drimaj
    12. Hiphop

Тривалість: 00:52:22
Бітрейт: 1018 кб/с
log
Exact Audio Copy V1.0 beta 3 from 29. August 2011

EAC extraction logfile from 27. December 2011, 21:16

Berkut / Czasu ne Marnuy

Used drive : HL-DT-STDVDRAM GSA-T20N Adapter: 0 ID: 0

Read mode : Secure
Utilize accurate stream : Yes
Defeat audio cache : Yes
Make use of C2 pointers : No

Read offset correction : 667
Overread into Lead-In and Lead-Out : No
Fill up missing offset samples with silence : Yes
Delete leading and trailing silent blocks : No
Null samples used in CRC calculations : Yes
Used interface : Native Win32 interface for Win NT & 2000
Gap handling : Appended to previous track

Used output format : User Defined Encoder
Selected bitrate : 128 kBit/s
Quality : High
Add ID3 tag : No
Command line compressor : C:\Program Files\Exact Audio Copy\FLAC\FLAC.EXE
Additional command line options : -V -8 -T "Date=%year%" -T "Genre=%genre%" %source%

TOC of the extracted CD

Track | Start | Length | Start sector | End sector
---------------------------------------------------------
1 | 0:00.00 | 4:32.17 | 0 | 20416
2 | 4:32.17 | 3:50.38 | 20417 | 37704
3 | 8:22.55 | 3:58.16 | 37705 | 55570
4 | 12:20.71 | 6:01.54 | 55571 | 82699
5 | 18:22.50 | 5:17.56 | 82700 | 106530
6 | 23:40.31 | 3:31.00 | 106531 | 122355
7 | 27:11.31 | 3:15.17 | 122356 | 136997
8 | 30:26.48 | 4:49.28 | 136998 | 158700
9 | 35:16.01 | 4:18.33 | 158701 | 178083
10 | 39:34.34 | 4:20.72 | 178084 | 197655
11 | 43:55.31 | 4:15.54 | 197656 | 216834
12 | 48:11.10 | 4:10.33 | 216835 | 235617

Track 1

Filename C:\Users\User\Documents\3456\Berkut - 2007 - Czasu ne Marnuy [FLAC]\01. Berkut - Hulaj sokole (Czasu ne Marnuy).wav

Pre-gap length 0:00:02.00

Peak level 100.0 %
Extraction speed 2.2 X
Track quality 99.9 %
Test CRC 14F7E014
Copy CRC 14F7E014
Track not present in AccurateRip database
Copy OK

Track 2

Filename C:\Users\User\Documents\3456\Berkut - 2007 - Czasu ne Marnuy [FLAC]\02. Berkut - Konopianyj blues (Czasu ne Marnuy).wav

Peak level 100.0 %
Extraction speed 2.7 X
Track quality 100.0 %
Test CRC 26D36E9E
Copy CRC 26D36E9E
Track not present in AccurateRip database
Copy OK

Track 3

Filename C:\Users\User\Documents\3456\Berkut - 2007 - Czasu ne Marnuy [FLAC]\03. Berkut - A niczka (Czasu ne Marnuy).wav

Peak level 100.0 %
Extraction speed 2.9 X
Track quality 100.0 %
Test CRC 5C3F3B16
Copy CRC 5C3F3B16
Track not present in AccurateRip database
Copy OK

Track 4

Filename C:\Users\User\Documents\3456\Berkut - 2007 - Czasu ne Marnuy [FLAC]\04. Berkut - Holodno (Czasu ne Marnuy).wav

Peak level 100.0 %
Extraction speed 3.2 X
Track quality 100.0 %
Test CRC AE6B40D8
Copy CRC AE6B40D8
Track not present in AccurateRip database
Copy OK

Track 5

Filename C:\Users\User\Documents\3456\Berkut - 2007 - Czasu ne Marnuy [FLAC]\05. Berkut - Dieta (Czasu ne Marnuy).wav

Peak level 100.0 %
Extraction speed 3.1 X
Track quality 99.9 %
Test CRC 5D158F9D
Copy CRC 5D158F9D
Track not present in AccurateRip database
Copy OK

Track 6

Filename C:\Users\User\Documents\3456\Berkut - 2007 - Czasu ne Marnuy [FLAC]\06. Berkut - Misto drimaje (Czasu ne Marnuy).wav

Peak level 100.0 %
Extraction speed 3.4 X
Track quality 100.0 %
Test CRC 2F10670D
Copy CRC 2F10670D
Track not present in AccurateRip database
Copy OK

Track 7

Filename C:\Users\User\Documents\3456\Berkut - 2007 - Czasu ne Marnuy [FLAC]\07. Berkut - Nese Hala wodu (Czasu ne Marnuy).wav

Peak level 100.0 %
Extraction speed 3.0 X
Track quality 99.9 %
Test CRC 72A723DA
Copy CRC 72A723DA
Track not present in AccurateRip database
Copy OK

Track 8

Filename C:\Users\User\Documents\3456\Berkut - 2007 - Czasu ne Marnuy [FLAC]\08. Berkut - Romans (Czasu ne Marnuy).wav

Peak level 100.0 %
Extraction speed 3.9 X
Track quality 100.0 %
Test CRC 598DB6AB
Copy CRC 598DB6AB
Track not present in AccurateRip database
Copy OK

Track 9

Filename C:\Users\User\Documents\3456\Berkut - 2007 - Czasu ne Marnuy [FLAC]\09. Berkut - Oj Mariczko (Czasu ne Marnuy).wav

Peak level 100.0 %
Extraction speed 3.9 X
Track quality 100.0 %
Test CRC 08666B84
Copy CRC 08666B84
Track not present in AccurateRip database
Copy OK

Track 10

Filename C:\Users\User\Documents\3456\Berkut - 2007 - Czasu ne Marnuy [FLAC]\10. Berkut - Daj Mylaja (Czasu ne Marnuy).wav

Peak level 100.0 %
Extraction speed 3.6 X
Track quality 99.9 %
Test CRC BADC147C
Copy CRC BADC147C
Track not present in AccurateRip database
Copy OK

Track 11

Filename C:\Users\User\Documents\3456\Berkut - 2007 - Czasu ne Marnuy [FLAC]\11. Berkut - Kozacze Ne Drimaj (Czasu ne Marnuy).wav

Peak level 100.0 %
Extraction speed 4.3 X
Track quality 100.0 %
Test CRC 564D35C4
Copy CRC 564D35C4
Track not present in AccurateRip database
Copy OK

Track 12

Filename C:\Users\User\Documents\3456\Berkut - 2007 - Czasu ne Marnuy [FLAC]\12. Berkut - Hiphop (Czasu ne Marnuy).wav

Peak level 100.0 %
Extraction speed 4.5 X
Track quality 100.0 %
Test CRC ADE4F312
Copy CRC ADE4F312
Track not present in AccurateRip database
Copy OK

None of the tracks are present in the AccurateRip database

No errors occurred

End of status report

==== Log checksum 58DA2DDFD95255CB1944B04DD7668F78E616B96962E35F8297AF48ABACFB3671 ====
AUDIOCHECKER
AUDIOCHECKER v2.0 beta (build 457) - by Dester - [email protected]
~~~~~~~~~~~~~~~~~~~~~~~~~~~~~~~~~~

Started at: вторник, 27. 12. 2011. - 21:20.43
12 files found

01 -===- C:\Users\User\Documents\3456\Berkut - 2007 - Czasu ne Marnuy [FLAC]\01. Berkut - Hulaj sokole (Czasu ne Marnuy).flac
Extracted successfully
Conclusion: this track is CDDA with probability 99%
Tempfile successfully deleted.

02 -===- C:\Users\User\Documents\3456\Berkut - 2007 - Czasu ne Marnuy [FLAC]\02. Berkut - Konopianyj blues (Czasu ne Marnuy).flac
Extracted successfully
Conclusion: this track is CDDA with probability 100%
Tempfile successfully deleted.

03 -===- C:\Users\User\Documents\3456\Berkut - 2007 - Czasu ne Marnuy [FLAC]\03. Berkut - A niczka (Czasu ne Marnuy).flac
Extracted successfully
Conclusion: this track is CDDA with probability 100%
Tempfile successfully deleted.

04 -===- C:\Users\User\Documents\3456\Berkut - 2007 - Czasu ne Marnuy [FLAC]\04. Berkut - Holodno (Czasu ne Marnuy).flac
Extracted successfully
Conclusion: this track is CDDA with probability 100%
Tempfile successfully deleted.

05 -===- C:\Users\User\Documents\3456\Berkut - 2007 - Czasu ne Marnuy [FLAC]\05. Berkut - Dieta (Czasu ne Marnuy).flac
Extracted successfully
Conclusion: this track is CDDA with probability 100%
Tempfile successfully deleted.

06 -===- C:\Users\User\Documents\3456\Berkut - 2007 - Czasu ne Marnuy [FLAC]\06. Berkut - Misto drimaje (Czasu ne Marnuy).flac
Extracted successfully
Conclusion: this track is CDDA with probability 100%
Tempfile successfully deleted.

07 -===- C:\Users\User\Documents\3456\Berkut - 2007 - Czasu ne Marnuy [FLAC]\07. Berkut - Nese Hala wodu (Czasu ne Marnuy).flac
Extracted successfully
Conclusion: this track is CDDA with probability 100%
Tempfile successfully deleted.

08 -===- C:\Users\User\Documents\3456\Berkut - 2007 - Czasu ne Marnuy [FLAC]\08. Berkut - Romans (Czasu ne Marnuy).flac
Extracted successfully
Conclusion: this track is CDDA with probability 100%
Tempfile successfully deleted.

09 -===- C:\Users\User\Documents\3456\Berkut - 2007 - Czasu ne Marnuy [FLAC]\09. Berkut - Oj Mariczko (Czasu ne Marnuy).flac
Extracted successfully
Conclusion: this track is CDDA with probability 100%
Tempfile successfully deleted.

10 -===- C:\Users\User\Documents\3456\Berkut - 2007 - Czasu ne Marnuy [FLAC]\10. Berkut - Daj Mylaja (Czasu ne Marnuy).flac
Extracted successfully
Conclusion: this track is CDDA with probability 100%
Tempfile successfully deleted.

11 -===- C:\Users\User\Documents\3456\Berkut - 2007 - Czasu ne Marnuy [FLAC]\11. Berkut - Kozacze Ne Drimaj (Czasu ne Marnuy).flac
Extracted successfully
Conclusion: this track is CDDA with probability 100%
Tempfile successfully deleted.

12 -===- C:\Users\User\Documents\3456\Berkut - 2007 - Czasu ne Marnuy [FLAC]\12. Berkut - Hiphop (Czasu ne Marnuy).flac
Extracted successfully
Conclusion: this track is CDDA with probability 100%
Tempfile successfully deleted.

Finished at: вторник, 27. 12. 2011. - 21:28.22 (operation time: 0:07.38)
2010 - Berkut 3

Berkut - Дискографія (3 альбоми) (2005-2010) [FLAC] | Folk-Rock

Пісні:
    1. Mołodeńka
    2.Hroszi
    3.Widpoczywaju
    4.Żdala maty syna
    5.Parubok
    6.Disco na seli
    7.Misiaczeńko
    8.W nas je lubow
    9.Żdy mene
    10.Hopa “k”oza
    11.A wona
    12.Zozula

Тривалість: 00:47:55
Бітрейт: 1019 кб/с
log
Exact Audio Copy V1.0 beta 3 from 29. August 2011

EAC extraction logfile from 27. December 2011, 22:18

Berkut / III

Used drive : HL-DT-STDVDRAM GSA-T20N Adapter: 0 ID: 0

Read mode : Secure
Utilize accurate stream : Yes
Defeat audio cache : Yes
Make use of C2 pointers : No

Read offset correction : 667
Overread into Lead-In and Lead-Out : No
Fill up missing offset samples with silence : Yes
Delete leading and trailing silent blocks : No
Null samples used in CRC calculations : Yes
Used interface : Native Win32 interface for Win NT & 2000
Gap handling : Appended to previous track

Used output format : User Defined Encoder
Selected bitrate : 128 kBit/s
Quality : High
Add ID3 tag : No
Command line compressor : C:\Program Files\Exact Audio Copy\FLAC\FLAC.EXE
Additional command line options : -V -8 -T "Date=%year%" -T "Genre=%genre%" %source%

TOC of the extracted CD

Track | Start | Length | Start sector | End sector
---------------------------------------------------------
1 | 0:00.00 | 3:28.08 | 0 | 15607
2 | 3:28.08 | 3:31.59 | 15608 | 31491
3 | 6:59.67 | 3:33.31 | 31492 | 47497
4 | 10:33.23 | 3:59.33 | 47498 | 65455
5 | 14:32.56 | 4:46.60 | 65456 | 86965
6 | 19:19.41 | 3:52.32 | 86966 | 104397
7 | 23:11.73 | 4:56.07 | 104398 | 126604
8 | 28:08.05 | 4:27.60 | 126605 | 146689
9 | 32:35.65 | 3:34.30 | 146690 | 162769
10 | 36:10.20 | 3:28.61 | 162770 | 178430
11 | 39:39.06 | 4:00.07 | 178431 | 196437
12 | 43:39.13 | 4:15.54 | 196438 | 215616

Track 1

Filename C:\Users\User\Documents\3456\Berkut - 2010 - 3 [FLAC]\01. Berkut - Molodenka (III).wav

Pre-gap length 0:00:02.00

Peak level 100.0 %
Extraction speed 2.3 X
Track quality 100.0 %
Test CRC 89C97721
Copy CRC 89C97721
Track not present in AccurateRip database
Copy OK

Track 2

Filename C:\Users\User\Documents\3456\Berkut - 2010 - 3 [FLAC]\02. Berkut - Hroszi (III).wav

Pre-gap length 0:00:01.00

Peak level 100.0 %
Extraction speed 2.2 X
Track quality 99.9 %
Test CRC 297BA483
Copy CRC 297BA483
Track not present in AccurateRip database
Copy OK

Track 3

Filename C:\Users\User\Documents\3456\Berkut - 2010 - 3 [FLAC]\03. Berkut - Widpoczywaju (III).wav

Pre-gap length 0:00:01.74

Peak level 100.0 %
Extraction speed 2.8 X
Track quality 100.0 %
Test CRC 876D5CB2
Copy CRC 876D5CB2
Track not present in AccurateRip database
Copy OK

Track 4

Filename C:\Users\User\Documents\3456\Berkut - 2010 - 3 [FLAC]\04. Berkut - Zdala maty syna (III).wav

Pre-gap length 0:00:00.74

Peak level 100.0 %
Extraction speed 3.1 X
Track quality 100.0 %
Test CRC 39C91C37
Copy CRC 39C91C37
Track not present in AccurateRip database
Copy OK

Track 5

Filename C:\Users\User\Documents\3456\Berkut - 2010 - 3 [FLAC]\05. Berkut - Parubok (III).wav

Pre-gap length 0:00:00.34

Peak level 99.9 %
Extraction speed 3.0 X
Track quality 99.9 %
Test CRC 398D645F
Copy CRC 398D645F
Track not present in AccurateRip database
Copy OK

Track 6

Filename C:\Users\User\Documents\3456\Berkut - 2010 - 3 [FLAC]\06. Berkut - Disco na seli (III).wav

Pre-gap length 0:00:02.00

Peak level 100.0 %
Extraction speed 3.5 X
Track quality 100.0 %
Test CRC 858557DD
Copy CRC 858557DD
Track not present in AccurateRip database
Copy OK

Track 7

Filename C:\Users\User\Documents\3456\Berkut - 2010 - 3 [FLAC]\07. Berkut - Misiaczenko (III).wav

Pre-gap length 0:00:02.00

Peak level 100.0 %
Extraction speed 3.8 X
Track quality 100.0 %
Test CRC B5B85949
Copy CRC B5B85949
Track not present in AccurateRip database
Copy OK

Track 8

Filename C:\Users\User\Documents\3456\Berkut - 2010 - 3 [FLAC]\08. Berkut - W nas je lubow (III).wav

Pre-gap length 0:00:01.30

Peak level 100.0 %
Extraction speed 3.9 X
Track quality 100.0 %
Test CRC E3A6A493
Copy CRC E3A6A493
Track not present in AccurateRip database
Copy OK

Track 9

Filename C:\Users\User\Documents\3456\Berkut - 2010 - 3 [FLAC]\09. Berkut - Zdy mene (III).wav

Pre-gap length 0:00:01.30

Peak level 100.0 %
Extraction speed 3.9 X
Track quality 100.0 %
Test CRC 48C1848B
Copy CRC 48C1848B
Track not present in AccurateRip database
Copy OK

Track 10

Filename C:\Users\User\Documents\3456\Berkut - 2010 - 3 [FLAC]\10. Berkut - Hopa “k”oza (III).wav

Pre-gap length 0:00:01.21

Peak level 100.0 %
Extraction speed 3.6 X
Track quality 99.9 %
Test CRC 42BD2271
Copy CRC 42BD2271
Track not present in AccurateRip database
Copy OK

Track 11

Filename C:\Users\User\Documents\3456\Berkut - 2010 - 3 [FLAC]\11. Berkut - A wona (III).wav

Pre-gap length 0:00:01.58

Peak level 100.0 %
Extraction speed 4.4 X
Track quality 100.0 %
Test CRC 51FC3035
Copy CRC 51FC3035
Track not present in AccurateRip database
Copy OK

Track 12

Filename C:\Users\User\Documents\3456\Berkut - 2010 - 3 [FLAC]\12. Berkut - Zozula (III).wav

Pre-gap length 0:00:01.02

Peak level 100.0 %
Extraction speed 4.6 X
Track quality 100.0 %
Test CRC 4B94977C
Copy CRC 4B94977C
Track not present in AccurateRip database
Copy OK

None of the tracks are present in the AccurateRip database

No errors occurred

End of status report

==== Log checksum 65FD314789C1553763829A1B288CA75F03D55DF544D9927E4C8E3A86BB1BC39B ====
AUDIOCHECKER
AUDIOCHECKER v2.0 beta (build 457) - by Dester - [email protected]
~~~~~~~~~~~~~~~~~~~~~~~~~~~~~~~~~~

Started at: вторник, 27. 12. 2011. - 23:30.14
12 files found

01 -===- C:\Users\User\Documents\3456\Berkut - 2010 - 3 [FLAC]\01. Berkut - Molodenka (III).flac
Extracted successfully
Conclusion: this track is CDDA with probability 100%
Tempfile successfully deleted.

02 -===- C:\Users\User\Documents\3456\Berkut - 2010 - 3 [FLAC]\02. Berkut - Hroszi (III).flac
Extracted successfully
Conclusion: this track is CDDA with probability 100%
Tempfile successfully deleted.

03 -===- C:\Users\User\Documents\3456\Berkut - 2010 - 3 [FLAC]\03. Berkut - Widpoczywaju (III).flac
Extracted successfully
Conclusion: this track is CDDA with probability 99%
Tempfile successfully deleted.

04 -===- C:\Users\User\Documents\3456\Berkut - 2010 - 3 [FLAC]\04. Berkut - Zdala maty syna (III).flac
Extracted successfully
Conclusion: this track is CDDA with probability 100%
Tempfile successfully deleted.

05 -===- C:\Users\User\Documents\3456\Berkut - 2010 - 3 [FLAC]\05. Berkut - Parubok (III).flac
Extracted successfully
Conclusion: this track is CDDA with probability 100%
Tempfile successfully deleted.

06 -===- C:\Users\User\Documents\3456\Berkut - 2010 - 3 [FLAC]\06. Berkut - Disco na seli (III).flac
Extracted successfully
Conclusion: this track is CDDA with probability 100%
Tempfile successfully deleted.

07 -===- C:\Users\User\Documents\3456\Berkut - 2010 - 3 [FLAC]\07. Berkut - Misiaczenko (III).flac
Extracted successfully
Conclusion: this track is CDDA with probability 100%
Tempfile successfully deleted.

08 -===- C:\Users\User\Documents\3456\Berkut - 2010 - 3 [FLAC]\08. Berkut - W nas je lubow (III).flac
Extracted successfully
Conclusion: this track is CDDA with probability 100%
Tempfile successfully deleted.

09 -===- C:\Users\User\Documents\3456\Berkut - 2010 - 3 [FLAC]\09. Berkut - Zdy mene (III).flac
Extracted successfully
Conclusion: this track is CDDA with probability 99%
Tempfile successfully deleted.

10 -===- C:\Users\User\Documents\3456\Berkut - 2010 - 3 [FLAC]\10. Berkut - Hopa “k”oza (III).flac
Extracted successfully
Conclusion: this track is CDDA with probability 100%
Tempfile successfully deleted.

11 -===- C:\Users\User\Documents\3456\Berkut - 2010 - 3 [FLAC]\11. Berkut - A wona (III).flac
Extracted successfully
Conclusion: this track is CDDA with probability 100%
Tempfile successfully deleted.

12 -===- C:\Users\User\Documents\3456\Berkut - 2010 - 3 [FLAC]\12. Berkut - Zozula (III).flac
Extracted successfully
Conclusion: this track is CDDA with probability 99%
Tempfile successfully deleted.

Finished at: вторник, 27. 12. 2011. - 23:36.57 (operation time: 0:06.43)
Загальна тривалість: 02:36:03
Мова: українська
Аудіо-кодек: FLAC
Бітрейт: ~1010 кб/с
Джерело: Велика подяка пану laletyan за ріпи з оригінальних дисків та iwan wan за оформлення
Додаткова інформація:
„БЕРКУТ” - це фольк-роковий гурт, утворений у 2004 році в столиці Вармії та Мазур - в Ольштині (Польща). Назва гурту походить від рідкісного хижого орла, який живе у Карпатах. У складі гурту є поляки та українці, яких з’єднала одна ідея, одна рушійна сила – музика інспірована українським фольком.

Від самого початку „Беркут” своїми яскравими, експресивними виступами здобув популярність серед молоді та любителів українського фольку. На відміну від інших колективів, гурт виконує авторські номери. Завдяки цьому він швидко створив індивідуальний музичний стиль, а перша платівка „Злі привички”, видана у 2005 році підтвердила невипадковість успіху. Динамічне та переконливе звучання цього синглю стало їх фірмовим знаком. Такий успіх повторила і чергова платівка під назвою
„Часу не марнуй”, яка побачила світ у 2006 році. Група багато працює, концертує в Польщі і за кордоном, знайомиться з публікою, постійно вдосконалює свою музику.
Літом 2010 р. гурт записав третю платівку під заголовком „Беркут 3”.
„Беркут” - це зараз один із найпопулярніших і найяскравіших гуртів у Польщі, який популяризує українську пісню. Вийнятковість гурту в тому, що їхня музика надзвичайно мелодійна, і при цьому зовсім не попсова. Вона, передусім, вирізняється колоритністю українських мотивів, а також грою українського слова. А взагалі, хлопці дуже позитивні та життєрадісні. У кожного учасника групи своє бачення творчого розвитку колективу, свій музичний досвід. Музикою, яку виконує „Беркут”, захоплюються люди різного віку. Концерти завжди переповнені енергією та шаленими емоціями, які надовго залишаються в пам’яті глядачів.


Якщо Ви справді бажаєте підтримати українське - після прослуховування, якщо музика вам сподобалась,
придбайте ліцензійний диск.
Підтримаймо вітчизняних виконавців!


Золотий реліз (завантажене не впливає на рейтинг)
 Трекер:    Зареєстрований   

Завантажити / скачати українську музику



відео для новачків



 Зареєстрований:   2012-02-23 00:04
 Розмір:   1.12 GB 
 Оцінка музики:   5.5/10 (Голосів: 6)
   
ssTAss 
Модератор музики


З нами з: 05.07.08
Востаннє: 06.12.16
Повідомлень: 10946

2012-02-23 00:07  
ssTAss 
Модератор музики


З нами з: 05.07.08
Востаннє: 06.12.16
Повідомлень: 10946

2012-05-05 22:55  
коврики
2005 - Zli Pryvyczky




2007 - Czasu ne Marnuy




2010 - Berkut 3



Ваш часовий пояс: GMT + 2 Години

Нова тема   Відповісти