Завантажити та скачати торренти українською


Випадковий чоловік / The Accidental Husband (2008) 720p 2xUkr/Eng | Sub Ukr/Eng

Нові коментарі

Нова тема   Відповісти
Автор Повідомлення
Zeus62 
Відео Гуртом - команда HD
Відео Гуртом - команда HD


З нами з: 29.12.08
Востаннє: 16.11.16
Повідомлень: 330

2012-02-20 12:47  
Випадковий чоловік / The Accidental Husband (2008) 720p 2xUkr/Eng | Sub Ukr/Eng

Випадковий чоловік / The Accidental Husband (2008) 720p 2xUkr/Eng | Sub Ukr/Eng


Жанр: комедія
Країна: Великобританія, США



Кіностудія / кінокомпанія: Blumhouse Productions
Режисер: Гріффін Данн
Актори: Ума Турман, Колін Фірт, Джеффрі Дін Морган, Сем Шепард, Ліндсей Слоун

Сюжет:
Психолог з Нью-Йорку вінчається зі своїм залицяльником. Але, раптово, героїня взнає, що вона вже заміжня. Її потрібно зробити нелегкий вибір - вирішити, хто ж з двох чоловіків може претендувати на розділення з нею подружнього ложа...


Тривалість: 01:30:36
Якість:
Відео:
кодек:
розмір кадру: 1280 х 688
бітрейт: 6199 кб/с

Аудіо # 1:
мова: українська
переклад: багатоголосий закадровий
кодек: 2.0
бітрейт: 192 кб/с

Аудіо # 2:
мова: українська
переклад: двоголосий закадровий
кодек: 2.0
бітрейт: 192 кб/с

Аудіо # 3:
мова: англійська
переклад: оригінал
кодек: 5.1
бітрейт: 640 кб/с

Субтитри:
мова: українська
тип: програмні (м'які)
формат: *.srt

Субтитри:
мова: англійська
тип: програмні (м'які)
формат: *.srt
MediaInfo:
File size : 4.57 GiB
Duration : 1h 30mn
Overall bit rate : 7 218 Kbps
Encoded date : UTC 2012-02-21 20:18:28
Writing application : mkvmerge v5.3.0 ('I could have danced') built on Feb 9 2012 23:25:33
Writing library : libebml v1.2.2 + libmatroska v1.3.0

Video
ID : 1
Format : AVC
Format/Info : Advanced Video Codec
Format profile : [email protected]
Format settings, CABAC : Yes
Format settings, ReFrames : 16 frames
Codec ID : V_MPEG4/ISO/AVC
Duration : 1h 30mn
Bit rate : 6 199 Kbps
Width : 1 280 pixels
Height : 688 pixels
Display aspect ratio : 1.860
Frame rate mode : Variable
Frame rate : 23.976 fps
Color space : YUV
Chroma subsampling : 4:2:0
Bit depth : 8 bits
Scan type : Progressive
Bits/(Pixel*Frame) : 0.294
Stream size : 3.83 GiB (84%)
Writing library : core 112
Encoding settings : cabac=1 / ref=16 / deblock=1:-3:-3 / analyse=0x3:0x113 / me=umh / subme=10 / psy=1 / psy_rd=1,00:0,00 / mixed_ref=1 / me_range=64 / chroma_me=1 / trellis=2 / 8x8dct=1 / cqm=0 / deadzone=21,11 / fast_pskip=1 / chroma_qp_offset=-2 / threads=9 / sliced_threads=0 / nr=0 / decimate=1 / interlaced=0 / constrained_intra=0 / bframes=16 / b_pyramid=2 / b_adapt=2 / b_bias=0 / direct=1 / weightb=1 / open_gop=0 / weightp=2 / keyint=240 / keyint_min=23 / scenecut=40 / intra_refresh=0 / rc_lookahead=50 / rc=2pass / mbtree=1 / bitrate=6199 / ratetol=1,0 / qcomp=0,60 / qpmin=3 / qpmax=51 / qpstep=4 / cplxblur=20,0 / qblur=0,5 / ip_ratio=1,40 / aq=1:1,00
Language : Ukrainian
Default : Yes
Forced : No
Color primaries : BT.709-5, BT.1361, IEC 61966-2-4, SMPTE RP177
Transfer characteristics : BT.709-5, BT.1361
Matrix coefficients : BT.709-5, BT.1361, IEC 61966-2-4 709, SMPTE RP177

Audio #1
ID : 2
Format : AC-3
Format/Info : Audio Coding 3
Mode extension : CM (complete main)
Codec ID : A_AC3
Duration : 1h 30mn
Bit rate mode : Constant
Bit rate : 192 Kbps
Channel(s) : 2 channels
Channel positions : Front: L R
Sampling rate : 48.0 KHz
Bit depth : 16 bits
Compression mode : Lossy
Stream size : 124 MiB (3%)
Title : DVD
Language : Ukrainian
Default : Yes
Forced : No

Audio #2
ID : 3
Format : AC-3
Format/Info : Audio Coding 3
Mode extension : CM (complete main)
Codec ID : A_AC3
Duration : 1h 30mn
Bit rate mode : Constant
Bit rate : 192 Kbps
Channel(s) : 2 channels
Channel positions : Front: L R
Sampling rate : 48.0 KHz
Bit depth : 16 bits
Compression mode : Lossy
Stream size : 124 MiB (3%)
Title : TET
Language : Ukrainian
Default : No
Forced : No

Audio #3
ID : 4
Format : AC-3
Format/Info : Audio Coding 3
Mode extension : CM (complete main)
Codec ID : A_AC3
Duration : 1h 30mn
Bit rate mode : Constant
Bit rate : 640 Kbps
Channel(s) : 6 channels
Channel positions : Front: L C R, Side: L R, LFE
Sampling rate : 48.0 KHz
Bit depth : 16 bits
Compression mode : Lossy
Stream size : 415 MiB (9%)
Title : Original
Language : English
Default : No
Forced : No

Text #1
ID : 5
Format : UTF-8
Codec ID : S_TEXT/UTF8
Codec ID/Info : UTF-8 Plain Text
Language : Ukrainian
Default : Yes
Forced : No

Text #2
ID : 6
Format : UTF-8
Codec ID : S_TEXT/UTF8
Codec ID/Info : UTF-8 Plain Text
Language : English
Default : No
Forced : No
log:
[info]: frame I:1234 Avg QP:15,06 size:170361 PSNR Mean Y:47,89 U:52,24 V:53,34 Avg:48,80 Global:48,30
[info]: frame P:27384 Avg QP:18,24 size: 59280 PSNR Mean Y:46,17 U:52,70 V:53,84 Avg:47,10 Global:45,65
[info]: frame B:101677 Avg QP:21,49 size: 23350 PSNR Mean Y:43,17 U:51,27 V:52,80 Avg:44,35 Global:43,90
[info]: consecutive B-frames: 1,0% 3,1% 5,8% 20,1% 16,0% 43,0% 4,6% 1,1% 3,5% 0,4% 1,1% 0,1% 0,1% 0,1% 0,0% 0,0% 0,0%
[info]: mb I I16..4: 10,2% 68,2% 21,5%
[info]: mb P I16..4: 2,4% 12,4% 1,5% P16..4: 30,2% 26,5% 14,7% 0,0% 0,0% skip:12,3%
[info]: mb B I16..4: 0,2% 2,1% 0,1% B16..8: 39,3% 14,1% 4,5% direct: 7,6% skip:32,1% L0:44,5% L1:41,4% BI:14,2%
[info]: 8x8 transform intra:77,9% inter:62,3%
[info]: coded y,uvDC,uvAC intra: 84,3% 78,6% 54,1% inter: 37,1% 24,1% 5,5%
[info]: i16 v,h,dc,p: 78% 9% 4% 9%
[info]: i8 v,h,dc,ddl,ddr,vr,hd,vl,hu: 12% 8% 9% 9% 13% 14% 12% 12% 11%
[info]: i4 v,h,dc,ddl,ddr,vr,hd,vl,hu: 14% 9% 7% 8% 14% 15% 12% 11% 11%
[info]: i8c dc,h,v,p: 42% 20% 22% 16%
[info]: Weighted P-Frames: Y:1,1% UV:0,6%
[info]: ref P L0: 41,4% 11,8% 16,7% 6,4% 5,5% 3,7% 3,5% 1,9% 1,9% 1,4% 1,4% 1,0% 1,0% 0,8% 0,9% 0,6%
[info]: ref B L0: 72,7% 10,6% 5,2% 2,7% 2,0% 1,6% 1,3% 0,9% 0,7% 0,6% 0,5% 0,4% 0,4% 0,2% 0,1%
[info]: ref B L1: 92,7% 7,3%
[info]: SSIM Mean Y:0,9775174 (16,482db)
[info]: PSNR Mean Y:43,842 U:51,579 V:53,025 Avg:44,968 Global:44,242 kb/s:6191,43
Скріншоти:
Original vs Encode






Джерело: Власний ріп +
Подяка weber, maksym1990, xslim та karvai0 за надані українські доріжки та субтитри.
Особиста оцінка: 10 - без зайвих вагань рекомендую всім!


 Трекер:    Зареєстрований   

Завантажити / скачати фільм українською



відео для новачків



 Зареєстрований:   2012-02-21 22:39
 Розмір:   4.57 GB 
 Оцінка фільму:   8.9/10 (Голосів: 10)
   
Інші релізи
bot 
робот


З нами з: 30.09.07
Востаннє: 26.05.05
Повідомлень: 15989

2012-02-21 22:38  
Тему перенесено з Анонси релізів від Відео Гуртом до форуму Фільми в HD


Zeus62

Jatx_11 
Відео Гуртом - фільмокрай
Відео Гуртом - фільмокрай


З нами з: 20.04.11
Востаннє: 23.10.16
Повідомлень: 700

2012-02-22 13:01  
Zeus62 написано:

Аудіо # 1:

мова: українська

переклад: багатоголосий закадровий

кодек: 2.0

бітрейт: 192 кб/с

Чому?

Zeus62 
Відео Гуртом - команда HD
Відео Гуртом - команда HD


З нами з: 29.12.08
Востаннє: 16.11.16
Повідомлень: 330

2012-02-22 23:54  
Цитата:

Zeus62 написано:

Аудіо # 1:

мова: українська

переклад: багатоголосий закадровий

кодек: 2.0

бітрейт: 192 кб/с

Чому?

Як це чому! Тому що така доріжка була доступна.

skuline 
Свій


З нами з: 17.12.11
Востаннє: 04.12.16
Повідомлень: 114

2013-05-07 14:30  
Варто подивитись, кумедний ))
Ваш часовий пояс: GMT + 2 Години

Нова тема   Відповісти