Завантажити та скачати торренти українською


Blutfahne - The Circle Of Eternal Return (2010) [FLAC] | Pagan NS Metal

Нові коментарі

Нова тема   Відповісти
Останній раз роздавалося alenas2001 (2015-05-01)
Автор Повідомлення
Lev 
VIP


З нами з: 14.10.09
Востаннє: 05.12.16
Повідомлень: 1819

2012-02-19 16:41  
Blutfahne - The Circle Of Eternal Return (2010) [FLAC] | Pagan NS Metal

Blutfahne - The Circle Of Eternal Return (2010) [FLAC] | Pagan NS Metal


Стиль: Pagan NS Metal
Країна, місто: Україна, Київ
Видавець: Lesoskog
Виконавці:
Влад (Русич) - вокал
Тимофій (ex-Сварга) - гітари, клавішні, барабани
Пісні:
    01. Prologue (2:51)
    02. Part I (7:47)
    03. Part II (5:46)
    04. Part III (9:41)
    05. Part VI (6:33)
    06. Part V (7:32)
    07. Epilogue (5:53)

Тривалість: 00:46:04
Мова: інстр. композиції (1, 7), російська (2-6)
Аудіо-кодек: FLAC
Бітрейт: 859 кб/с
Джерело: оригінальний CD (ріп від troll_bolotniy)
Додаткова інформація:
log EAC
Exact Audio Copy V0.99 prebeta 4 from 23. January 2008

EAC extraction logfile from 24. October 2011, 21:30

Blutfahne / The Circle Of Eternal Return

Used drive : Optiarc DVD RW AD-7243S Adapter: 2 ID: 0

Read mode : Secure
Utilize accurate stream : Yes
Defeat audio cache : Yes
Make use of C2 pointers : No

Read offset correction : 48
Overread into Lead-In and Lead-Out : No
Fill up missing offset samples with silence : Yes
Delete leading and trailing silent blocks : No
Null samples used in CRC calculations : Yes
Used interface : Installed external ASPI interface

Used output format : User Defined Encoder
Selected bitrate : 768 kBit/s
Quality : High
Add ID3 tag : No
Command line compressor : C:\Program Files\Exact Audio Copy\FLAC\FLAC.EXE
Additional command line options : -6 -V -T "ARTIST=%a" -T "TITLE=%t" -T "ALBUM=%g" -T "DATE=%y" -T "TRACKNUMBER=%n" -T "GENRE=%m" -T "COMMENT=%e" %s -o %d

TOC of the extracted CD

Track | Start | Length | Start sector | End sector
---------------------------------------------------------
1 | 0:00.00 | 2:51.04 | 0 | 12828
2 | 2:51.04 | 7:47.04 | 12829 | 47857
3 | 10:38.08 | 5:46.04 | 47858 | 73811
4 | 16:24.12 | 9:41.25 | 73812 | 117411
5 | 26:05.37 | 6:33.05 | 117412 | 146891
6 | 32:38.42 | 7:32.04 | 146892 | 180795
7 | 40:10.46 | 5:53.08 | 180796 | 207278

Range status and errors

Selected range

Filename E:\Blutfahne - The Circle Of Eternal Return.wav

Peak level 80.4 %
Range quality 100.0 %
Test CRC 5A5419F4
Copy CRC 5A5419F4
Copy OK

No errors occurred

AccurateRip summary

Track 1 not present in database
Track 2 not present in database
Track 3 not present in database
Track 4 not present in database
Track 5 not present in database
Track 6 not present in database
Track 7 not present in database

None of the tracks are present in the AccurateRip database

End of status report
Урочистий альбом в дусі Graveland, дебютний повноформатник проекту.


Якщо Ви справді бажаєте підтримати українське - після прослуховування, якщо музика вам сподобалась, придбайте ліцензійний диск або перерахуйте гроші правим політв'язням.


Срібний реліз (на рейтинг впливає 50% завантаженого)
 Трекер:    Зареєстрований   

Завантажити / скачати українську музику



відео для новачків



 Зареєстрований:   2012-02-19 16:41
 Розмір:   283 MB 
 Оцінка музики:   7/10 (Голосів: 3)
   
Swirl 
Оцифрування книг Гуртом
Оцифрування книг Гуртом


З нами з: 12.10.09
Востаннє: 24.02.15
Повідомлень: 495

2012-02-19 18:44  
ггг) не думав, що він сюди добереться та ще й у флак)
Lev 
VIP


З нами з: 14.10.09
Востаннє: 05.12.16
Повідомлень: 1819

2012-02-19 22:30  
Swirl написано:
ггг) не думав, що він сюди добереться та ще й у флак)


я люблю такий музон.

Swirl 
Оцифрування книг Гуртом
Оцифрування книг Гуртом


З нами з: 12.10.09
Востаннє: 24.02.15
Повідомлень: 495

2012-02-19 22:37  
Lev
колись (а то було давно й неправда) грав з одним з учасників у іншому проекті... здивувавсь, що він тут, бо широко розповсюдження альбом не отримав.

Lev 
VIP


З нами з: 14.10.09
Востаннє: 05.12.16
Повідомлень: 1819

2012-02-19 23:29  
Swirl написано:
здивувавсь, що він тут, бо широко розповсюдження альбом не отримав.


ну так, далеко не всі шарять, та й звучання специфічне.

Ваш часовий пояс: GMT + 2 Години

Нова тема   Відповісти