Завантажити та скачати торренти українською


Нічого втрачати / Nothing to lose (1997) 720p 2xUkr/Eng | Sub Eng

Нові коментарі

Нова тема   Відповісти
Автор Повідомлення
Zeus62 
Відео Гуртом - команда HD
Відео Гуртом - команда HD


З нами з: 29.12.08
Востаннє: 16.11.16
Повідомлень: 330

2012-02-19 11:36  
Нічого втрачати / Nothing to lose (1997) 720p 2xUkr/Eng | Sub Eng

Нічого втрачати / Nothing to lose (1997) 720p 2xUkr/Eng | Sub Eng


Жанр: пригодницький, комедія
Країна: США



Кіностудія / кінокомпанія: Touchstone Pictures
Режисер: Стів Удекерк
Актори: Мартін Лоуренс, Тім Роббінс, Джон Маꥳнлі, Джанкарло Еспозіто, Майкл Кін, Келлі Престон

Сюжет:
Фільм розповідає про Ніка Біма, рекламного виконавця, який думає, що має прекрасне життя... до його повернення додому і застає свою дружину, яка займається сексом з його босом. Відчувши, що опинився на межі нервового зриву, він їздить містом доки в його машину не влазить автограбіжник Ті-Пол, вимагаючи гаманеці і ключі від машини. Та Нік в свою чергу, не зважаючи на грабіжника, рушає далі, викрадаючи нападника... Невдовзі вони розуміють що варті один одного...


Тривалість: 01:33:59
Якість:
Відео:
кодек:
розмір кадру: 1280 х 688
бітрейт: 5299 кб/с

Аудіо # 1:
мова: українська
переклад: двоголосий закадровий
кодек: 5.0
бітрейт: 384 кб/с

Аудіо # 2:
мова: українська
переклад: двоголосий закадровий
кодек: 5.0
бітрейт: 384 кб/с

Аудіо # 3:
мова: англійська
переклад: оригінал
кодек: 5.1
бітрейт: 384 кб/с

Субтитри:
мова: англійська
тип: програмні (м'які)
формат: *.srt
MediaInfo:
File size : 4.24 GiB
Duration : 1h 33mn
Overall bit rate : 6 452 Kbps
Encoded date : UTC 2012-02-20 08:06:03
Writing application : mkvmerge v5.3.0 ('I could have danced') built on Feb 9 2012 23:25:33
Writing library : libebml v1.2.2 + libmatroska v1.3.0

Video
ID : 1
Format : AVC
Format/Info : Advanced Video Codec
Format profile : [email protected]
Format settings, CABAC : Yes
Format settings, ReFrames : 16 frames
Codec ID : V_MPEG4/ISO/AVC
Duration : 1h 33mn
Bit rate : 5 299 Kbps
Width : 1 280 pixels
Height : 688 pixels
Display aspect ratio : 1.860
Frame rate mode : Variable
Frame rate : 25.000 fps
Color space : YUV
Chroma subsampling : 4:2:0
Bit depth : 8 bits
Scan type : Progressive
Bits/(Pixel*Frame) : 0.241
Stream size : 3.40 GiB (80%)
Writing library : core 112
Encoding settings : cabac=1 / ref=16 / deblock=1:-3:-3 / analyse=0x3:0x113 / me=umh / subme=10 / psy=1 / psy_rd=1,00:0,00 / mixed_ref=1 / me_range=64 / chroma_me=1 / trellis=2 / 8x8dct=1 / cqm=0 / deadzone=21,11 / fast_pskip=1 / chroma_qp_offset=-2 / threads=9 / sliced_threads=0 / nr=0 / decimate=1 / interlaced=0 / constrained_intra=0 / bframes=16 / b_pyramid=2 / b_adapt=2 / b_bias=0 / direct=1 / weightb=1 / open_gop=0 / weightp=2 / keyint=250 / keyint_min=24 / scenecut=40 / intra_refresh=0 / rc_lookahead=50 / rc=2pass / mbtree=1 / bitrate=5299 / ratetol=1,0 / qcomp=0,60 / qpmin=3 / qpmax=51 / qpstep=4 / cplxblur=20,0 / qblur=0,5 / ip_ratio=1,40 / aq=1:1,00
Language : English
Default : Yes
Forced : No
Color primaries : BT.709-5, BT.1361, IEC 61966-2-4, SMPTE RP177
Transfer characteristics : BT.709-5, BT.1361
Matrix coefficients : BT.709-5, BT.1361, IEC 61966-2-4 709, SMPTE RP177

Audio #1
ID : 2
Format : AC-3
Format/Info : Audio Coding 3
Mode extension : CM (complete main)
Codec ID : A_AC3
Duration : 1h 33mn
Bit rate mode : Constant
Bit rate : 384 Kbps
Channel(s) : 5 channels
Channel positions : Front: L C R, Side: L R
Sampling rate : 48.0 KHz
Bit depth : 16 bits
Compression mode : Lossy
Stream size : 258 MiB (6%)
Language : Ukrainian
Default : Yes
Forced : No

Audio #2
ID : 3
Format : AC-3
Format/Info : Audio Coding 3
Mode extension : CM (complete main)
Codec ID : A_AC3
Duration : 1h 33mn
Bit rate mode : Constant
Bit rate : 384 Kbps
Channel(s) : 5 channels
Channel positions : Front: L C R, Side: L R
Sampling rate : 48.0 KHz
Bit depth : 16 bits
Compression mode : Lossy
Stream size : 258 MiB (6%)
Language : Ukrainian
Default : No
Forced : No

Audio #3
ID : 4
Format : AC-3
Format/Info : Audio Coding 3
Mode extension : CM (complete main)
Codec ID : A_AC3
Duration : 1h 33mn
Bit rate mode : Constant
Bit rate : 384 Kbps
Channel(s) : 5 channels
Channel positions : Front: L C R, Side: L R
Sampling rate : 48.0 KHz
Bit depth : 16 bits
Compression mode : Lossy
Stream size : 258 MiB (6%)
Language : English
Default : No
Forced : No

Text
ID : 5
Format : UTF-8
Codec ID : S_TEXT/UTF8
Codec ID/Info : UTF-8 Plain Text
Language : English
Default : Yes
Forced : No
log:
[info]: frame I:1000 Avg QP:13,00 size:119898 PSNR Mean Y:50,70 U:54,66 V:55,82 Avg:51,63 Global:51,20
[info]: frame P:32249 Avg QP:15,44 size: 45503 PSNR Mean Y:49,28 U:53,36 V:54,29 Avg:50,09 Global:49,28
[info]: frame B:107730 Avg QP:17,89 size: 19931 PSNR Mean Y:47,03 U:52,31 V:53,57 Avg:48,05 Global:47,65
[info]: consecutive B-frames: 1,3% 3,4% 4,4% 36,6% 31,5% 6,0% 5,3% 4,5% 5,8% 0,5% 0,1% 0,1% 0,1% 0,1% 0,1% 0,1% 0,0%
[info]: mb I I16..4: 4,4% 84,1% 11,5%
[info]: mb P I16..4: 1,5% 18,0% 1,3% P16..4: 33,5% 28,0% 12,5% 0,0% 0,0% skip: 5,2%
[info]: mb B I16..4: 0,1% 2,4% 0,1% B16..8: 37,4% 16,2% 3,6% direct:13,5% skip:26,7% L0:45,7% L1:42,4% BI:11,9%
[info]: 8x8 transform intra:87,5% inter:65,9%
[info]: coded y,uvDC,uvAC intra: 90,7% 83,5% 54,1% inter: 42,1% 37,4% 4,0%
[info]: i16 v,h,dc,p: 37% 8% 4% 51%
[info]: i8 v,h,dc,ddl,ddr,vr,hd,vl,hu: 11% 10% 8% 9% 12% 13% 12% 12% 13%
[info]: i4 v,h,dc,ddl,ddr,vr,hd,vl,hu: 12% 9% 3% 10% 15% 15% 13% 12% 12%
[info]: i8c dc,h,v,p: 42% 23% 21% 14%
[info]: Weighted P-Frames: Y:2,7% UV:1,7%
[info]: ref P L0: 43,9% 8,0% 12,3% 7,8% 4,5% 5,1% 3,1% 2,9% 1,9% 2,3% 1,5% 1,8% 1,2% 1,5% 1,0% 1,1%
[info]: ref B L0: 74,0% 9,5% 4,8% 2,2% 2,1% 1,4% 1,4% 0,8% 0,9% 0,6% 0,7% 0,5% 0,5% 0,3% 0,2%
[info]: ref B L1: 91,6% 8,4%
[info]: SSIM Mean Y:0,9870786 (18,887db)
[info]: PSNR Mean Y:47,572 U:52,566 V:53,754 Avg:48,544 Global:47,995 kb/s:5297,62
Скріншоти:
Original vs Encode






Джерело: Власний ріп +
Подяка Lan за синхронізацію звукових доріжок та Musketeer за постер.
Особиста оцінка: 10 - без зайвих вагань рекомендую всім!


Срібний реліз (на рейтинг впливає 50% завантаженого)
 Трекер:    Зареєстрований   

Завантажити / скачати фільм українською



відео для новачків



 Зареєстрований:   2012-02-20 12:24
 Розмір:   4.24 GB 
 Оцінка фільму:   9.8/10 (Голосів: 18)
   
Інші релізи
   Нічого втрачати / Nothing to lose (1997) 2xUkr | Sub Eng akon111  8 / 0   1.49 GB   2012-02-19 10:03 
link_s 
Свій


З нами з: 04.03.10
Востаннє: 04.12.16
Повідомлень: 135

2012-02-19 11:49  
опис фільму варто підправити, а то виходить "моя твоя ні понімай"...
Zeus62 
Відео Гуртом - команда HD
Відео Гуртом - команда HD


З нами з: 29.12.08
Востаннє: 16.11.16
Повідомлень: 330

2012-02-19 11:53  
Цитата:
опис фільму варто підправити, а то виходить "моя твоя ні понімай"...

Опис не я робив, тому й не вчитувався. Тепер виправлено.

bot 
робот


З нами з: 30.09.07
Востаннє: 26.05.05
Повідомлень: 15986

2012-02-20 12:24  
Тему перенесено з Анонси релізів від Відео Гуртом до форуму Фільми в HD


Zeus62

miroVIDEO 
Частий відвідувач


З нами з: 02.10.09
Востаннє: 04.12.16
Повідомлень: 30

2012-02-21 08:07  
Дякую за фільм!
Zeus62 
Відео Гуртом - команда HD
Відео Гуртом - команда HD


З нами з: 29.12.08
Востаннє: 16.11.16
Повідомлень: 330

2012-02-21 22:08  
miroVIDEO
Нема за що)

Lan 
Відео Гуртом - фільмокрай
Відео Гуртом - фільмокрай


З нами з: 19.09.09
Востаннє: 04.12.16
Повідомлень: 625

2012-02-22 16:56  
Обидві українські доріжки насправді 5.0, а не 5.1. Бажано було б виправити.
Zeus62 
Відео Гуртом - команда HD
Відео Гуртом - команда HD


З нами з: 29.12.08
Востаннє: 16.11.16
Повідомлень: 330

2012-02-22 23:55  
Цитата:
Обидві українські доріжки насправді 5.0, а не 5.1. Бажано було б виправити.

Дякую що нагадав. А то якось випустив цей момент з поля зору)

Ваш часовий пояс: GMT + 2 Години

Нова тема   Відповісти