Завантажити та скачати торренти українською


Шлях Карліто / Carlito's Way (1993) 720p Ukr/Eng | Sub Eng

Нові коментарі

Нова тема   Відповісти
Автор Повідомлення
Віктор 
Відео Гуртом - субтитрування
Відео Гуртом - субтитрування


З нами з: 09.01.10
Востаннє: 04.12.16
Повідомлень: 8663

2012-02-18 18:27  
Шлях Карліто / Carlito's Way (1993) 720p Ukr/Eng | Sub Eng

Шлях Карліто / Carlito's Way (1993) 720p Ukr/Eng | Sub Eng


Жанр: драма, кримінал
Країна: США



Кіностудія / кінокомпанія: Universal Pictures, Epic Productions, Bregman/Baer Productions
Режисер: Браян Де Пальма (Brian De Palma)
Композитор: Патрік Дойл (Patrick Doyle)
Актори: Аль Пачіно (Al Pacino), Шон Пенн (Sean Penn), Пенелопа Енн Міллер (Penelope Ann Miller), Джон Леґуізамо (John Leguizamo), Інґрід Роджерс (Ingrid Rogers), Луіс Ґузман (Luis Guzmán), Джеймс Ребгорн (James Rebhorn), Джозеф Сіраво (Joseph Siravo), Віґо Мортенсен (Viggo Mortensen), Марк Ентоні (Marc Anthony) та інші.

Сюжет:
Нью-Йорк, 70-і роки ХХ століття. Помітний наркоділок-пуерторіканець Карліто Бріґанте виходить із в’язниці, де відсидів п’ять років. Він повертається до коханої жінки з бажанням покинути колишнє заняття й розпочати чесне життя. Одначе кримінальне минуле й прохання близького друга, адвоката Клейнфілда, що допоміг Карліто вибратись на волю, а тепер встряв у небезпечну авантюру, знову збивають героя фільму з праведного шляху.
Номінації та цікаві факти

Золотий ґлобус, 1994 рік
Номінації (2):

Найкраща чоловіча роль другого плану (Шон Пенн)
Найкраща жіноча роль другого плану (Пенелопа Енн Міллер)

Цікаві факти про фільм


• Спочатку Браян Де Пальма планував зняти кінцівку фільму у Всесвітньому торговому комплексі в Нью-Йорку.
• Назва нічного клубу, яким управляє Карліто (Аль Пачіно), - "El Paraiso". Так само називалася забігайлівка, в якій у свій час працював персонаж Аль Пачіно у фільмі "Обличчя зі шрамом" (1983).
• Як зізнався Шон Пенн, він погодився зіграти Девіда Клейнфілда тільки через гроші, для того, щоб він зміг профінансувати свій другий фільм "Постовий на перехресті" (1995).
• "Шлях Карліто" - екранізація роману Едвіна Торреса "Після роботи" (After Hours). Проте, свою назву фільм отримав від першої книги Торреса - "Шлях Карліто", в якій розповідалося про молоді роки Карлоса Бріґанте. Назву фільму було змінено, для того, щоб уникнути плутанини з комедійною драмою Мартіна Скорсезе "Після роботи" (After Hours) (1985).
• Бюджет - $30,000,000
MediaInfo

Код:
General
Unique ID                        : 203249685673504936370100551077183867650 (0x98E877306BAC258383BE83F40CDBCB02)
Complete name                    : D:\HURTOM\Carlito's Way (1993) [Ukr, Eng] 720p [Hurtom].mkv
Format                           : Matroska
Format version                   : Version 2
File size                        : 8.40 GiB
Duration                         : 2h 24mn
Overall bit rate                 : 8 340 Kbps
Movie name                       : Carlito's Way (1993) [Ukr, Eng] 720p [Hurtom]
Encoded date                     : UTC 2012-02-18 18:55:34
Writing application              : mkvmerge v5.0.1 ('Es ist Sommer') built on Oct  9 2011 11:55:43
Writing library                  : libebml v1.2.2 + libmatroska v1.3.0

Video
ID                               : 1
Format                           : AVC
Format/Info                      : Advanced Video Codec
Format profile                   : [email protected]
Format settings, CABAC           : Yes
Format settings, ReFrames        : 12 frames
Codec ID                         : V_MPEG4/ISO/AVC
Duration                         : 2h 24mn
Bit rate                         : 6 381 Kbps
Width                            : 1 280 pixels
Height                           : 544 pixels
Display aspect ratio             : 2.35:1
Frame rate                       : 23.976 fps
Color space                      : YUV
Chroma subsampling               : 4:2:0
Bit depth                        : 8 bits
Scan type                        : Progressive
Bits/(Pixel*Frame)               : 0.382
Stream size                      : 6.26 GiB (75%)
Title                            : Carlito's Way (1993) [Ukr, Eng] 720p [Hurtom]
Writing library                  : core 96 r1602 69588a7
Encoding settings                : cabac=1 / ref=12 / deblock=1:-3:-3 / analyse=0x3:0x113 / me=umh / subme=10 / psy=1 / psy_rd=1.00:0.00 / mixed_ref=1 / me_range=64 / chroma_me=1 / trellis=2 / 8x8dct=1 / cqm=0 / deadzone=21,11 / fast_pskip=0 / chroma_qp_offset=-2 / threads=6 / sliced_threads=0 / nr=0 / decimate=0 / interlaced=0 / constrained_intra=0 / bframes=6 / b_pyramid=2 / b_adapt=2 / b_bias=0 / direct=3 / weightb=1 / weightp=2 / keyint=250 / keyint_min=25 / scenecut=40 / intra_refresh=0 / rc_lookahead=120 / rc=2pass / mbtree=1 / bitrate=6381 / ratetol=1.0 / qcomp=0.60 / qpmin=10 / qpmax=51 / qpstep=4 / cplxblur=20.0 / qblur=0.5 / ip_ratio=1.40 / aq=1:0.80
Language                         : English
Default                          : Yes
Forced                           : No

Audio #1
ID                               : 2
Format                           : AC-3
Format/Info                      : Audio Coding 3
Mode extension                   : CM (complete main)
Codec ID                         : A_AC3
Duration                         : 2h 24mn
Bit rate mode                    : Constant
Bit rate                         : 448 Kbps
Channel(s)                       : 6 channels
Channel positions                : Front: L C R, Side: L R, LFE
Sampling rate                    : 48.0 KHz
Bit depth                        : 16 bits
Compression mode                 : Lossy
Stream size                      : 462 MiB (5%)
Title                            : 5.1 @ 448 kbps - двоголосий закадровий | Студія 1+1
Language                         : Ukrainian
Default                          : Yes
Forced                           : No

Audio #2
ID                               : 3
Format                           :
Format/Info                      : Digital Theater Systems
Codec ID                         : A_DTS
Duration                         : 2h 24mn
Bit rate mode                    : Constant
Bit rate                         : 1 510 Kbps
Channel(s)                       : 6 channels
Channel positions                : Front: L C R, Side: L R, LFE
Sampling rate                    : 48.0 KHz
Bit depth                        : 24 bits
Compression mode                 : Lossy
Stream size                      : 1.52 GiB (18%)
Title                            : 5.1 @ 1536 kbps
Language                         : English
Default                          : No
Forced                           : No

Text
ID                               : 4
Format                           : UTF-8
Codec ID                         : S_TEXT/UTF8
Codec ID/Info                    : UTF-8 Plain Text
Language                         : English
Default                          : No
Forced                           : No
Наявні релізи

720p Ukr/Eng | Sub Eng (8.40 GB) - двоголосий закадровий Студія 1+1
Ukr/Eng | sub Eng (2.91 GB) - двоголосий закадровий Студія 1+1

Ролі озвучили: Ярослав Чорненький
Тривалість: 02:24:10
Якість: 720p (HiDt)
Відео:
кодек:
розмір кадру: 1280x544 (OAR)
бітрейт: 6381 кб/с

Аудіо # 1:
мова: українська
переклад: двоголосий закадровий Студія 1+1 | усі чоловічі ролі озвучив: Ярослав Чорненький
кодек: 5.1
бітрейт: 448 кб/с

Аудіо # 2:
мова: англійська
переклад: ориґінал
кодек: 5.1
бітрейт: 1536 кб/с

Субтитри:
мова: англійська
тип: програмні (м'які)
формат: *.srt

Скріншоти:





За синхронізацію укр. доріжки подяка Lan,
за звукозапис з ТБ подяка robotron005


Джерело:
Особиста оцінка: 8


Срібний реліз (на рейтинг впливає 50% завантаженого)
 Трекер:    Зареєстрований   

Завантажити / скачати фільм українською



відео для новачків



 Зареєстрований:   2012-02-18 21:45
 Розмір:   8.4 GB 
 Оцінка фільму:   7.6/10 (Голосів: 8)
   
Інші релізи
   Шлях Карліто / Carlito's Way (1993) Ukr/Eng | sub Eng Lion91  4 / 0   2.91 GB   2012-02-18 19:18 
leroykendall 
Модератор HD


З нами з: 03.01.11
Востаннє: 20.11.16
Повідомлень: 749

2012-02-23 10:43  
Дякую за реліз! Щось я його провтикав. Забираю Happy
Ваш часовий пояс: GMT + 2 Години

Нова тема   Відповісти