Завантажити та скачати торренти українською


Механік / The Mechanic (2011) 720p Ukr/Eng | Sub Eng

Нові коментарі

Нова тема   Відповісти
Автор Повідомлення
Zeus62 
Відео Гуртом - команда HD
Відео Гуртом - команда HD


З нами з: 29.12.08
Востаннє: 16.11.16
Повідомлень: 330

2012-02-17 20:34  
Механік / The Mechanic (2011) 720p Ukr/Eng | Sub Eng

Механік / The Mechanic (2011) 720p Ukr/Eng | Sub Eng


Жанр: екшн, кримінал, трилер
Країна: США



Кіностудія / кінокомпанія: Millenium Films
Режисер: Саймон Уест
Актори: Джейсон Стетем , Бен Фостер, Міні Анден, Тоні Голдвін, Дональд Сазерленд, Кріста Кемпбелл

Сюжет:
Професійний вбивця, що працює на якусь кримінальну організацію, планує віддалитися від справ і бере в учні сина однієї зі своїх жертв. Учень прагне пізнати всі премудрощі професії і зайняти місце в злочинній ієрархії. Але бандитські угрупування нікого просто так не відпускають.


Тривалість: 01:32:44
Якість:
Відео:
кодек:
розмір кадру: 1280 х 536
бітрейт: 5603 кб/с

Аудіо # 1:
мова: українська
переклад: багатоголосий закадровий
кодек: 5.1
бітрейт: 384 кб/с

Аудіо # 2:
мова: англійська
переклад: оригінал
кодек: 5.1
бітрейт: 640 кб/с

Субтитри:
мова: англійська
тип: програмні (м'які)
формат: *.srt
MediaInfo:
File size : 4.29 GiB
Duration : 1h 32mn
Overall bit rate : 6 626 Kbps
Writing application : HandBrake rev3736
Writing library : libmkv 0.6.4.1

Video
ID : 1
Format : AVC
Format/Info : Advanced Video Codec
Format profile : [email protected]
Format settings, CABAC : Yes
Format settings, ReFrames : 16 frames
Codec ID : V_MPEG4/ISO/AVC
Duration : 1h 32mn
Bit rate : 5 603 Kbps
Width : 1 280 pixels
Height : 536 pixels
Display aspect ratio : 2.40:1
Frame rate mode : Variable
Frame rate : 23.976 fps
Color space : YUV
Chroma subsampling : 4:2:0
Bit depth : 8 bits
Scan type : Progressive
Bits/(Pixel*Frame) : 0.341
Stream size : 3.54 GiB (83%)
Writing library : core 112
Encoding settings : cabac=1 / ref=16 / deblock=1:-3:-3 / analyse=0x3:0x113 / me=umh / subme=10 / psy=1 / psy_rd=1,00:0,00 / mixed_ref=1 / me_range=64 / chroma_me=1 / trellis=2 / 8x8dct=1 / cqm=0 / deadzone=21,11 / fast_pskip=1 / chroma_qp_offset=-2 / threads=9 / sliced_threads=0 / nr=0 / decimate=1 / interlaced=0 / constrained_intra=0 / bframes=16 / b_pyramid=2 / b_adapt=2 / b_bias=0 / direct=1 / weightb=1 / open_gop=0 / weightp=2 / keyint=240 / keyint_min=23 / scenecut=40 / intra_refresh=0 / rc_lookahead=50 / rc=2pass / mbtree=1 / bitrate=5603 / ratetol=1,0 / qcomp=0,60 / qpmin=3 / qpmax=51 / qpstep=4 / cplxblur=20,0 / qblur=0,5 / ip_ratio=1,40 / aq=1:1,00
Language : English
Default : Yes
Forced : No
Color primaries : BT.709-5, BT.1361, IEC 61966-2-4, SMPTE RP177
Transfer characteristics : BT.709-5, BT.1361
Matrix coefficients : BT.709-5, BT.1361, IEC 61966-2-4 709, SMPTE RP177

Audio #1
ID : 2
Format : AC-3
Format/Info : Audio Coding 3
Mode extension : CM (complete main)
Codec ID : A_AC3
Duration : 1h 32mn
Bit rate mode : Constant
Bit rate : 384 Kbps
Channel(s) : 6 channels
Channel positions : Front: L C R, Side: L R, LFE
Sampling rate : 48.0 KHz
Bit depth : 16 bits
Compression mode : Lossy
Stream size : 255 MiB (6%)
Language : Ukrainian
Default : Yes
Forced : No

Audio #2
ID : 3
Format : AC-3
Format/Info : Audio Coding 3
Mode extension : CM (complete main)
Codec ID : A_AC3
Duration : 1h 32mn
Bit rate mode : Constant
Bit rate : 640 Kbps
Channel(s) : 6 channels
Channel positions : Front: L C R, Side: L R, LFE
Sampling rate : 48.0 KHz
Bit depth : 16 bits
Compression mode : Lossy
Stream size : 425 MiB (10%)
Language : English
Default : No
Forced : No

Text
ID : 4
Format : UTF-8
Codec ID : S_TEXT/UTF8
Codec ID/Info : UTF-8 Plain Text
Language : English
Default : No
Forced : No

Menu
00:00:00.000 : Chapter.01
00:07:03.464 : Chapter.02
00:12:50.936 : Chapter.03
00:17:09.403 : Chapter.04
00:22:30.306 : Chapter.05
00:31:39.146 : Chapter.06
00:37:00.175 : Chapter.07
00:39:56.184 : Chapter.08
00:48:35.786 : Chapter.09
00:54:09.077 : Chapter.10
01:03:33.557 : Chapter.11
01:07:19.240 : Chapter.12
01:12:55.117 : Chapter.13
01:16:58.694 : Chapter.14
01:19:37.185 : Chapter.15
log:
[info]: frame I:983 Avg QP:15,24 size:116127 PSNR Mean Y:47,70 U:50,71 V:52,72 Avg:48,58 Global:47,67
[info]: frame P:30145 Avg QP:18,77 size: 43674 PSNR Mean Y:46,54 U:50,91 V:53,70 Avg:47,56 Global:45,31
[info]: frame B:102281 Avg QP:21,77 size: 24056 PSNR Mean Y:43,39 U:49,13 V:52,57 Avg:44,66 Global:43,80
[info]: consecutive B-frames: 2,5% 3,2% 6,2% 22,1% 16,5% 34,5% 8,9% 3,4% 1,0% 0,7% 0,4% 0,2% 0,3% 0,0% 0,0% 0,0% 0,0%
[info]: mb I I16..4: 9,4% 72,0% 18,6%
[info]: mb P I16..4: 4,2% 22,0% 1,7% P16..4: 29,7% 19,5% 9,2% 0,0% 0,0% skip:13,7%
[info]: mb B I16..4: 0,3% 5,1% 0,2% B16..8: 37,0% 12,6% 4,6% direct: 8,0% skip:32,2% L0:43,9% L1:44,6% BI:11,5%
[info]: 8x8 transform intra:82,9% inter:62,8%
[info]: coded y,uvDC,uvAC intra: 82,4% 65,5% 39,8% inter: 36,8% 21,0% 4,0%
[info]: i16 v,h,dc,p: 68% 13% 7% 12%
[info]: i8 v,h,dc,ddl,ddr,vr,hd,vl,hu: 10% 7% 13% 10% 13% 12% 13% 10% 12%
[info]: i4 v,h,dc,ddl,ddr,vr,hd,vl,hu: 14% 9% 8% 9% 14% 12% 12% 10% 13%
[info]: i8c dc,h,v,p: 46% 22% 17% 15%
[info]: Weighted P-Frames: Y:3,7% UV:2,0%
[info]: ref P L0: 43,7% 8,6% 18,8% 6,8% 5,5% 3,6% 3,2% 1,8% 1,6% 1,2% 1,2% 0,9% 0,9% 0,8% 0,8% 0,6%
[info]: ref B L0: 72,5% 11,6% 5,2% 2,8% 1,9% 1,5% 1,2% 0,8% 0,6% 0,5% 0,4% 0,4% 0,3% 0,2% 0,1%
[info]: ref B L1: 92,8% 7,2%
[info]: SSIM Mean Y:0,9730370 (15,692db)
[info]: PSNR Mean Y:44,132 U:49,546 V:52,826 Avg:45,343 Global:44,116 kb/s:5594,27
Скріншоти:
Original vs Encode





Цитата:
Збережено оригінальні чаптери як на Blu-Ray

Джерело: Власний ріп +
Подяка Lan за українську доріжку.
Особиста оцінка: 9 - давно не бачив настільки якісне кіно


 Трекер:    Зареєстрований   

Завантажити / скачати фільм українською



відео для новачків



 Зареєстрований:   2012-02-17 20:34
 Розмір:   4.29 GB 
 Оцінка фільму:   9.7/10 (Голосів: 22)
   
Інші релізи
   Механік / The Mechanic (2011) AVC Ukr/Eng AngryBirdsUA  13 / 0   2.13 GB   2011-10-16 18:53 
   Механік / The Mechanic (2011) ** Anonymous  0 / 0   1.46 GB   2011-10-11 22:07 
Anonymous 







2012-02-17 20:52  
а з якого робив Rus Transfer чи USA Transfer? бо 2-й набагато кращий (чи з попереднього)
Zeus62 
Відео Гуртом - команда HD
Відео Гуртом - команда HD


З нами з: 29.12.08
Востаннє: 16.11.16
Повідомлень: 330

2012-02-17 20:56  
Гість
Наскільки я пам’ятаю - USA Transfer.

DiGen 
Модератор HD та координатор Команди HD
Модератор HD та координатор Команди HD


З нами з: 12.11.09
Востаннє: 24.06.13
Повідомлень: 1452

2012-02-17 22:20  
Zeus62 написано:
b_adapt=2

Наступного разу при кодуваннях виставляй 1 при збереженні
Zeus62 написано:
bframes=16
Zeus62 написано:
subme=10
має бути 11
Zeus62 написано:
qpstep=4
якщо є динамічні сцени має бути 11
Буде кодувати довше, але якість буде вища.

Додано через 26 секунд:

Дописати те, що збережені ориг чаптери

UA_Miroslav 
Модератор програм


З нами з: 11.12.10
Востаннє: 30.09.16
Повідомлень: 356

2012-04-06 11:12  
Zeus62 написано:
Джейсон СтХетем

Правильно Стетхем!Або взагалі Джейсон Стейтем=)

Ваш часовий пояс: GMT + 2 Години

Нова тема   Відповісти