Завантажити та скачати торренти українською


Роккі - Антологія / Rocky - Anthology (1976-2006) 1080p Ukr/Eng | Sub Ukr/Eng

Нові коментарі

Нова тема   Відповісти
Автор Повідомлення
ratbol 
Модератор HD


З нами з: 03.02.09
Востаннє: 07.12.16
Повідомлень: 1088

2012-02-16 23:22  
Роккі - Антологія / Rocky - Anthology (1976-2006) 1080p Ukr/Eng | Sub Ukr/Eng

Роккі - Антологія / Rocky - Anthology (1976-2006) 1080p Ukr/Eng | Sub Ukr/Eng


Жанр: Драма, Спорт
Країна: США
Якість: 1080p

Джерело озвучення:
"Так Треба Продакшн" на замовлення телеканалу:
Роккі / Rocky (1976) 1080p Ukr/Eng | Sub Eng


Роккі / Rocky (1976) 1080p Ukr/Eng | Sub Eng

Роккі - Антологія / Rocky - Anthology (1976-2006) 1080p Ukr/Eng | Sub Ukr/Eng




Кіностудія / кінокомпанія: United Artists
Режисер: Джон Г. Евілдсен
Актори: Сільвестр Сталлоне, Талія Шайр, Берт Янг, Карл Уезерс, Берджесс Мередіт, Тейер Девід, Джо Спінелл, Джіммі

Сюжет:
Хто такий Роккі Бальбоа? — це людина легенда, соромливий, але надзвичайно упертий і талановитий боксер, який не щадив себе і піднявся з самого дна на вершину слави. Своєю чарівливістю він завойовує серця мільйонів, а кривавими поєдинками шокує навіть професіоналів. Він вимотує себе виснажливими тренуваннями і мріє про пояс чемпіона світу. Як бультер'єр він накидається на своїх противників, якими б небезпечними вони не були. Йому начхати, що його обличчя перетворюється на криваве місиво, він завжди йде до самого кінця, і здається, що він швидше помре, ніж покаже свою слабкість.

Тривалість: 01:59:35
Відео:
кодек:
розмір кадру: 1920 х 1040
бітрейт: 15.1 Мбіт/с

Аудіо # 1:
мова: українська
переклад: багатоголосий закадровий, Так Треба Продакшн (Інтер)
кодек: 5.1
бітрейт: 384 Кбіт/с

Аудіо # 2:
мова: англійська
переклад: оригінал
кодек: 5.1
бітрейт: 1 510 Кбіт/с

Аудіо # 3:
мова: англійська
переклад: коментарі Сільвестра Сталлоне
кодек: 2.0
бітрейт: 192 Кбіт/с

Субтитри:
мова: англійська (SDH)
тип: програмні (м'які)
формат: *.srt

MediaInfo
Код:
General
Unique ID                        : 226682096065648965348598572623655112026 (0xAA896237FEF3C69E86226B4B6A4C8D5A)
Complete name                    : E:\Роккі. Антологія\Роккі [Rocky] (1976) 1080p [Hurtom].mkv
Format                           : Matroska
Format version                   : Version 2
File size                        : 14.5 GiB
Duration                         : 1h 59mn
Overall bit rate                 : 17.4 Mbps
Movie name                       : Rocky (1976) [Hurtom] by ratbol
Encoded date                     : UTC 2012-02-14 18:09:14
Writing application              : mkvmerge v3.2.0 ('Beginnings') built on Feb 12 2010 16:46:17
Writing library                  : libebml v0.7.9 + libmatroska v0.8.1

Video
ID                               : 1
Format                           : AVC
Format/Info                      : Advanced Video Codec
Format profile                   : [email protected]
Format settings, CABAC           : Yes
Format settings, ReFrames        : 4 frames
Codec ID                         : V_MPEG4/ISO/AVC
Duration                         : 1h 59mn
Bit rate                         : 15.1 Mbps
Width                            : 1 920 pixels
Height                           : 1 040 pixels
Display aspect ratio             : 16:9
Frame rate                       : 23.976 fps
Color space                      : YUV
Chroma subsampling               : 4:2:0
Bit depth                        : 8 bits
Scan type                        : Progressive
Bits/(Pixel*Frame)               : 0.316
Stream size                      : 12.3 GiB (85%)
Title                            : Rocky (1976)
Writing library                  : core 76 r1271M 496d79d
Encoding settings                : cabac=1 / ref=4 / deblock=1:-2:-2 / analyse=0x3:0x113 / me=umh / subme=9 / psy=1 / psy_rd=1.3:0.0 /

mixed_ref=1 / me_range=24 / chroma_me=1 / trellis=2 / 8x8dct=1 / cqm=0 / deadzone=21,11 / chroma_qp_offset=-2 / threads=6 / nr=0 / decimate=1

/ mbaff=0 / bframes=4 / b_pyramid=0 / b_adapt=2 / b_bias=0 / direct=3 / wpredb=1 / keyint=250 / keyint_min=25 / scenecut=40 / rc_lookahead=70

/ rc=2pass / mbtree=1 / bitrate=15117 / ratetol=1.0 / qcomp=0.70 / qpmin=10 / qpmax=51 / qpstep=4 / cplxblur=20.0 / qblur=0.5 /

vbv_maxrate=50000 / vbv_bufsize=50000 / ip_ratio=1.30 / aq=1:0.80
Language                         : English
Default                          : Yes
Forced                           : No

Audio #1
ID                               : 2
Format                           : AC-3
Format/Info                      : Audio Coding 3
Mode extension                   : CM (complete main)
Codec ID                         : A_AC3
Duration                         : 1h 59mn
Bit rate mode                    : Constant
Bit rate                         : 384 Kbps
Channel(s)                       : 6 channels
Channel positions                : Front: L C R, Side: L R, LFE
Sampling rate                    : 48.0 KHz
Bit depth                        : 16 bits
Compression mode                 : Lossy
Stream size                      : 328 MiB (2%)
Title                            : 5.1 [384 Kbps] - багатоголосий закадровий, Так Треба Продакшн (Інтер)
Language                         : Ukrainian
Default                          : Yes
Forced                           : No

Audio #2
ID                               : 3
Format                           :
Format/Info                      : Digital Theater Systems
Codec ID                         : A_DTS
Duration                         : 1h 59mn
Bit rate mode                    : Constant
Bit rate                         : 1 510 Kbps
Channel(s)                       : 6 channels
Channel positions                : Front: L C R, Side: L R, LFE
Sampling rate                    : 48.0 KHz
Bit depth                        : 24 bits
Compression mode                 : Lossy
Delay relative to video          : 11ms
Stream size                      : 1.26 GiB (9%)
Title                            : 5.1 [1 510 Kbps]
Language                         : English
Default                          : No
Forced                           : No

Audio #3
ID                               : 4
Format                           : AC-3
Format/Info                      : Audio Coding 3
Mode extension                   : CM (complete main)
Codec ID                         : A_AC3
Duration                         : 1h 59mn
Bit rate mode                    : Constant
Bit rate                         : 192 Kbps
Channel(s)                       : 2 channels
Channel positions                : Front: L R
Sampling rate                    : 48.0 KHz
Bit depth                        : 16 bits
Compression mode                 : Lossy
Stream size                      : 164 MiB (1%)
Title                            : коментарі Сільвестра Сталлоне
Language                         : English
Default                          : No
Forced                           : No

Audio #4
ID                               : 5
Format                           : AC-3
Format/Info                      : Audio Coding 3
Mode extension                   : CM (complete main)
Codec ID                         : A_AC3
Duration                         : 1h 59mn
Bit rate mode                    : Constant
Bit rate                         : 192 Kbps
Channel(s)                       : 2 channels
Channel positions                : Front: L R
Sampling rate                    : 48.0 KHz
Bit depth                        : 16 bits
Compression mode                 : Lossy
Stream size                      : 164 MiB (1%)
Title                            : коментарі творців
Language                         : English
Default                          : No
Forced                           : No

Text
ID                               : 6
Format                           : UTF-8
Codec ID                         : S_TEXT/UTF8
Codec ID/Info                    : UTF-8 Plain Text
Title                            : SDH
Language                         : English
Default                          : No
Forced                           : No

Menu
00:00:00.000                     : :Opening Credits/Fight
00:07:18.271                     : :Turtle Food
00:11:47.456                     : :Break His Thumb
00:16:21.730                     : :"Ain't Your Locker No More"
00:22:15.542                     : :"Giving Me the Shoulder"
00:26:00.016                     : :Advice
00:32:55.556                     : :The Italian Stallion
00:33:57.535                     : :"She's Very Excited"
00:40:11.075                     : :Ice-Skating
00:47:33.809                     : :"I Want to Kiss You"
00:54:56.751                     : :The Proposition
00:57:23.189                     : :The Stuff on TV
01:02:37.587                     : :"You Wanna Help Me Out?"
01:10:41.695                     : :Morning Run
01:17:35.984                     : :"He's Awful Pushy"
01:19:15.417                     : :Women Weaken Legs
01:22:03.793                     : :Exposure
01:25:22.992                     : :Christmastime
01:29:15.850                     : :In Training
01:34:18.402                     : :"I Can't Beat Him"
01:39:24.124                     : :The Main Event
01:47:10.674                     : :Round 1
01:48:34.049                     : :The Battles
01:54:39.581                     : :The Final Round/Credits
Скріншоти




Роккі II / Rocky II (1979) 1080p Ukr/Eng | Sub Ukr/Eng


Роккі II / Rocky II (1979) 1080p Ukr/Eng | Sub Ukr/Eng

Роккі - Антологія / Rocky - Anthology (1976-2006) 1080p Ukr/Eng | Sub Ukr/Eng




Кіностудія / кінокомпанія: Chartoff-Winkler Productions
Режисер: Сільвестр Сталлоне
Актори: Сільвестр Сталлоне, Талія Шайр, Берт Янг, Карл Уезерс, Берджесс Мередіт, Тоня Бертон, Джо Спінелл, Леонард Гейнс, Сільвія Мілс, Френк МакРей

Сюжет:
Програвши по очках в незабутньому поєдинку за звання чемпіона світу в першій частині, Роккі Бальбоа намагається кинути спорт і почати нове спокійне життя. Проте, це у нього не виходить, адже бокс - його покликання. У результаті, не дивлячись на протести молодої дружини, Роккі приймає виклик свого старого суперника Апполо Кріда на матч-реванш. Апполо перебуває в прекрасній фізичній формі і горить бажанням помститися за нанесені йому в першому поєдинку побої. Отже в Роккі є всі шанси втратити не лише дружину, але і здоров'я.

Тривалість: 01:59:10
Відео:
кодек:
розмір кадру: 1920 х 1040
бітрейт: 16.0 Мбіт/с

Аудіо # 1:
мова: українська
переклад: багатоголосий закадровий, Так Треба Продакшн (Інтер)
кодек: 5.1
бітрейт: 384 Кбіт/с

Аудіо # 2:
мова: англійська
переклад: оригінал
кодек: 5.1
бітрейт: 1 510 Кбіт/с

Субтитри # 1:
мова: українська (форсовані)
тип: програмні (м'які)
формат: *.srt

Субтитри # 2:
мова: українська (повні, ліцензія R5)
тип: програмні (м'які)
формат: *.srt

Субтитри # 3:
мова: англійська (SDH)
тип: програмні (м'які)
формат: *.srt

MediaInfo
Код:
General
Unique ID                        : 240805580352850160642502830858823587559 (0xB52977C19739EC09B5B961200110D6E7)
Complete name                    : E:\Роккі. Антологія\Роккі II [Rocky II] (1979) 1080p [Hurtom].mkv
Format                           : Matroska
Format version                   : Version 2
File size                        : 14.9 GiB
Duration                         : 1h 59mn
Overall bit rate                 : 17.9 Mbps
Movie name                       : Rocky II (1979) [Hurtom] by ratbol
Encoded date                     : UTC 2012-02-14 18:18:44
Writing application              : mkvmerge v3.2.0 ('Beginnings') built on Feb 12 2010 16:46:17
Writing library                  : libebml v0.7.9 + libmatroska v0.8.1

Video
ID                               : 1
Format                           : AVC
Format/Info                      : Advanced Video Codec
Format profile                   : [email protected]
Format settings, CABAC           : Yes
Format settings, ReFrames        : 4 frames
Codec ID                         : V_MPEG4/ISO/AVC
Duration                         : 1h 59mn
Bit rate                         : 16.0 Mbps
Width                            : 1 920 pixels
Height                           : 1 040 pixels
Display aspect ratio             : 16:9
Frame rate                       : 23.976 fps
Color space                      : YUV
Chroma subsampling               : 4:2:0
Bit depth                        : 8 bits
Scan type                        : Progressive
Bits/(Pixel*Frame)               : 0.335
Stream size                      : 13.1 GiB (87%)
Title                            : Rocky II (1979)
Writing library                  : core 76 r1271M 496d79d
Encoding settings                : cabac=1 / ref=4 / deblock=1:-3:-3 / analyse=0x3:0x113 / me=umh / subme=9 / psy=1 / psy_rd=1.0:0.0 /

mixed_ref=1 / me_range=24 / chroma_me=1 / trellis=2 / 8x8dct=1 / cqm=0 / deadzone=21,11 / chroma_qp_offset=-2 / threads=6 / nr=0 / decimate=1

/ mbaff=0 / bframes=4 / b_pyramid=0 / b_adapt=2 / b_bias=0 / direct=3 / wpredb=1 / keyint=250 / keyint_min=25 / scenecut=40 / rc_lookahead=70

/ rc=2pass / mbtree=1 / bitrate=16039 / ratetol=1.0 / qcomp=0.70 / qpmin=10 / qpmax=51 / qpstep=4 / cplxblur=20.0 / qblur=0.5 /

vbv_maxrate=50000 / vbv_bufsize=50000 / ip_ratio=1.30 / aq=1:0.80
Language                         : English
Default                          : Yes
Forced                           : No

Audio #1
ID                               : 2
Format                           : AC-3
Format/Info                      : Audio Coding 3
Mode extension                   : CM (complete main)
Codec ID                         : A_AC3
Duration                         : 1h 59mn
Bit rate mode                    : Constant
Bit rate                         : 384 Kbps
Channel(s)                       : 6 channels
Channel positions                : Front: L C R, Side: L R, LFE
Sampling rate                    : 48.0 KHz
Bit depth                        : 16 bits
Compression mode                 : Lossy
Stream size                      : 327 MiB (2%)
Title                            : 5.1 [384 Kbps] - багатоголосий закадровий, Так Треба Продакшн (Інтер)
Language                         : Ukrainian
Default                          : Yes
Forced                           : No

Audio #2
ID                               : 3
Format                           :
Format/Info                      : Digital Theater Systems
Codec ID                         : A_DTS
Duration                         : 1h 59mn
Bit rate mode                    : Constant
Bit rate                         : 1 510 Kbps
Channel(s)                       : 6 channels
Channel positions                : Front: L C R, Side: L R, LFE
Sampling rate                    : 48.0 KHz
Bit depth                        : 24 bits
Compression mode                 : Lossy
Delay relative to video          : 11ms
Stream size                      : 1.26 GiB (8%)
Title                            : 5.1 [1 510 Kbps]
Language                         : English
Default                          : No
Forced                           : No

Text #1
ID                               : 4
Format                           : UTF-8
Codec ID                         : S_TEXT/UTF8
Codec ID/Info                    : UTF-8 Plain Text
Title                            : форсовані
Language                         : Ukrainian
Default                          : No
Forced                           : No

Text #2
ID                               : 5
Format                           : UTF-8
Codec ID                         : S_TEXT/UTF8
Codec ID/Info                    : UTF-8 Plain Text
Title                            : повні (ліцензія R5)
Language                         : Ukrainian
Default                          : No
Forced                           : No

Text #3
ID                               : 6
Format                           : UTF-8
Codec ID                         : S_TEXT/UTF8
Codec ID/Info                    : UTF-8 Plain Text
Title                            : SDH
Language                         : English
Default                          : No
Forced                           : No

Menu
00:00:00.000                     : :Flashback/Main Title
00:07:50.052                     : :After the Fight
00:14:07.012                     : :A Little Married
00:22:02.904                     : :Reversal of Fortune
00:29:24.512                     : :Hard Times
00:40:48.904                     : :"I am a Fighter"
00:49:56.451                     : :Apollo's Challenge
01:01:53.668                     : :Meet the Press
01:04:21.524                     : :New Strategy
01:12:01.734                     : :Family Matters
01:17:00.574                     : :Prayer, Talk & Poetry
01:26:27.765                     : :Training
01:32:41.097                     : :5 to 1 Underdog
01:41:27.539                     : :The Fight
01:51:54.541                     : :The Final Round
01:54:41.291                     : :"I Did It"/End Credits
Скріншоти




Роккі III / Rocky III (1983) 1080p Ukr/Eng | Sub Ukr/Eng


Роккі III / Rocky III (1983) 1080p Ukr/Eng | Sub Ukr/Eng

Роккі - Антологія / Rocky - Anthology (1976-2006) 1080p Ukr/Eng | Sub Ukr/Eng




Кіностудія / кінокомпанія: Chartoff-Winkler Productions | United Artists
Режисер: Сільвестр Сталлоне
Актори: Сільвестр Сталлоне, Талія Шайр, Берт Янг, Карл Уезерс, Берджесс Мередіт, Тоня Бертон, Містер Ті, Халк Хоган, Йен Фрід, Аль Сільвані

Сюжет:
Отримавши нищівну перемогу над Аполло Крідом, Роккі купається в променях слави. Його оточує розкіш і престиж. Він з легкістю розправляється зі всіма претендентами на його чемпіонський пояс. Гонорари великі, а тренування нетривалі, і в результаті Роккі починає втрачати свою знамениту швидкість і точність. Плюс до всього вспливають старі травми - все-таки він пропускав надто багато ударів по голові. У результаті, коли на рингу з'являється молодий непробивний боксер на ім'я Клаббер, Роккі виявляється неспроможним витримати його нищівні удари і врезультаті втрачає чемпіонство. Після такої ганьби від нього відвертаються всі, окрім колишнього ворога, а тепер товариша за нещастям Аполло Кріда.

Тривалість: 01:39:38
Відео:
кодек:
розмір кадру: 1920 х 1040
бітрейт: 16.2 Мбіт/с

Аудіо # 1:
мова: українська
переклад: багатоголосий закадровий, Так Треба Продакшн (Інтер)
кодек: 5.1
бітрейт: 384 Кбіт/с

Аудіо # 2:
мова: англійська
переклад: оригінал
кодек: 5.1
бітрейт: 1 561 Кбіт/с

Субтитри # 1:
мова: українська (форсовані)
тип: програмні (м'які)
формат: *.srt

Субтитри # 2:
мова: українська (повні, ліцензія R5)
тип: програмні (м'які)
формат: *.srt

Субтитри # 3:
мова: англійська (SDH)
тип: програмні (м'які)
формат: *.srt

MediaInfo
Код:
General
Unique ID                        : 227062871257061468052481349106755831808 (0xAAD2B7E297415DBFB054040F5AF20800)
Complete name                    : E:\Роккі. Антологія\Роккі III [Rocky III] (1983) 1080p [Hurtom].mkv
Format                           : Matroska
Format version                   : Version 2
File size                        : 13.2 GiB
Duration                         : 1h 39mn
Overall bit rate mode            : Variable
Overall bit rate                 : 18.9 Mbps
Movie name                       : Rocky III (1982) [Hurtom] by ratbol
Encoded date                     : UTC 2012-02-14 15:08:31
Writing application              : mkvmerge v3.2.0 ('Beginnings') built on Feb 12 2010 16:46:17
Writing library                  : libebml v0.7.9 + libmatroska v0.8.1

Video
ID                               : 1
Format                           : AVC
Format/Info                      : Advanced Video Codec
Format profile                   : [email protected]
Format settings, CABAC           : Yes
Format settings, ReFrames        : 4 frames
Codec ID                         : V_MPEG4/ISO/AVC
Duration                         : 1h 39mn
Bit rate                         : 16.2 Mbps
Width                            : 1 920 pixels
Height                           : 1 040 pixels
Display aspect ratio             : 16:9
Frame rate                       : 23.976 fps
Color space                      : YUV
Chroma subsampling               : 4:2:0
Bit depth                        : 8 bits
Scan type                        : Progressive
Bits/(Pixel*Frame)               : 0.339
Stream size                      : 11.5 GiB (88%)
Title                            : Rocky III (1982)
Writing library                  : core 76 r1271M 496d79d
Encoding settings                : cabac=1 / ref=4 / deblock=1:-3:-3 / analyse=0x3:0x113 / me=umh / subme=9 / psy=1 / psy_rd=1.0:0.0 /

mixed_ref=1 / me_range=24 / chroma_me=1 / trellis=2 / 8x8dct=1 / cqm=0 / deadzone=21,11 / chroma_qp_offset=-2 / threads=6 / nr=0 / decimate=1

/ mbaff=0 / bframes=4 / b_pyramid=0 / b_adapt=2 / b_bias=0 / direct=3 / wpredb=1 / keyint=250 / keyint_min=25 / scenecut=40 / rc_lookahead=70

/ rc=2pass / mbtree=1 / bitrate=16229 / ratetol=1.0 / qcomp=0.70 / qpmin=10 / qpmax=51 / qpstep=4 / cplxblur=20.0 / qblur=0.5 /

vbv_maxrate=50000 / vbv_bufsize=50000 / ip_ratio=1.30 / aq=1:1.00
Language                         : English
Default                          : No
Forced                           : No

Audio #1
ID                               : 2
Format                           : AC-3
Format/Info                      : Audio Coding 3
Mode extension                   : CM (complete main)
Codec ID                         : A_AC3
Duration                         : 1h 39mn
Bit rate mode                    : Constant
Bit rate                         : 384 Kbps
Channel(s)                       : 6 channels
Channel positions                : Front: L C R, Side: L R, LFE
Sampling rate                    : 48.0 KHz
Bit depth                        : 16 bits
Compression mode                 : Lossy
Stream size                      : 274 MiB (2%)
Title                            : 5.1 [384 Kbps] - багатоголосий закадровий, Так Треба Продакшн (Інтер)
Language                         : Ukrainian
Default                          : Yes
Forced                           : No

Audio #2
ID                               : 3
Format                           :
Format/Info                      : Digital Theater Systems
Format profile                   : MA / Core
Codec ID                         : A_DTS
Duration                         : 1h 39mn
Bit rate mode                    : Variable
Bit rate                         : 1 561 Kbps / 1 510 Kbps
Channel(s)                       : 6 channels
Channel positions                : Front: L C R, Side: L R, LFE
Sampling rate                    : 48.0 KHz
Bit depth                        : 24 bits
Compression mode                 : Lossless / Lossy
Title                            : 5.1 [1 561 Kbps]
Language                         : English
Default                          : No
Forced                           : No

Text #1
ID                               : 4
Format                           : UTF-8
Codec ID                         : S_TEXT/UTF8
Codec ID/Info                    : UTF-8 Plain Text
Title                            : форсовані
Language                         : Ukrainian
Default                          : No
Forced                           : No

Text #2
ID                               : 5
Format                           : UTF-8
Codec ID                         : S_TEXT/UTF8
Codec ID/Info                    : UTF-8 Plain Text
Title                            : повні (ліцензія R5)
Language                         : Ukrainian
Default                          : No
Forced                           : No

Text #3
ID                               : 6
Format                           : UTF-8
Codec ID                         : S_TEXT/UTF8
Codec ID/Info                    : UTF-8 Plain Text
Title                            : SDH
Language                         : English
Default                          : No
Forced                           : No

Menu
00:00:00.000                     : :Title/Champion
00:03:12.442                     : :Defender
00:06:51.953                     : :Credits/Poor Paulie
00:12:58.736                     : :Thunder Lips
00:23:07.636                     : :One More Fight
00:33:45.940                     : :Cross-Training
00:37:56.816                     : :Clubber Lang
00:48:27.154                     : :Mourning Mickey
00:54:41.695                     : :Eye of the Tiger
00:58:54.948                     : :New Beginning
01:03:39.482                     : :No Tomorrow
01:10:44.615                     : :Pep Talk
01:15:28.690                     : :Getting Strong
01:18:54.146                     : :"Go For It!"
01:34:32.958                     : :Favor
01:36:25.237                     : :End Credits
Скріншоти




Роккі IV / Rocky IV (1985) 1080p Ukr/Eng | Sub Ukr/Eng


Роккі IV / Rocky IV (1985) 1080p Ukr/Eng | Sub Ukr/Eng

Роккі - Антологія / Rocky - Anthology (1976-2006) 1080p Ukr/Eng | Sub Ukr/Eng




Кіностудія / кінокомпанія: Chartoff-Winkler Productions | United Artists
Режисер: Сільвестр Сталлоне
Актори: Сільвестр Сталлоне, Талія Шайр, Берт Янг, Карл Уезерс, Бригіті Нільсен, Тоня Бертон, Майкл Патакі, Дольф Лундгрен, Стью Нехен, Р. Дж. Адамс

Сюжет:
Роккі Бальбоа щасливий в своєму родинному житті, і навіть вічне набридливе бурчання Полі Пенніно, брата Адріани, не здатне зіпсувати Роккі гарний настрій. Але в життя Бальбоа все-таки вривається нова трагедія. Його друг і тренер Аполло Крід погоджується взяти участь в показовому поєдинку з чемпіоном світу серед боксерів-аматорів Іваном Драго, капітаном Радянської Армії. Організатори матчу назвали поєдинок показовим, але Іван Драго перетворив боксерський бій в справжній: російський гігант, немов кувалдою, уклав Кріда на ринг смертельним ударом. Аби в чесній спортивній сутичці помститися за загибель друга, Роккі Бальбоа повертається у великий бокс. Для підготовки до поєдинку, який, за умовами контракту, відбудеться в Москві, Роккі їде до Росії, де починає знов набирати спортивну форму.

Тривалість: 01:31:31
Відео:
кодек:
розмір кадру: 1920 х 1040
бітрейт: 18.3 Мбіт/с

Аудіо # 1:
мова: українська
переклад: багатоголосий закадровий, Так Треба Продакшн (Інтер)
кодек: 5.1
бітрейт: 384 Кбіт/с

Аудіо # 2:
мова: англійська
переклад: оригінал
кодек: 5.1
бітрейт: 1 510 Кбіт/с

Субтитри # 1:
мова: українська (форсовані)
тип: програмні (м'які)
формат: *.srt

Субтитри # 2:
мова: українська (повні, ліцензія R5)
тип: програмні (м'які)
формат: *.srt

Субтитри # 3:
мова: англійська (SDH)
тип: програмні (м'які)
формат: *.srt

MediaInfo
Код:
General
Unique ID                        : 199561326157421999302529574707289380880 (0x96221D0664F6DFB982D3DB46BD5BD810)
Complete name                    : E:\Роккі. Антологія\Роккі IV [Rocky IV] (1985) 1080p [Hurtom].mkv
Format                           : Matroska
Format version                   : Version 2
File size                        : 12.9 GiB
Duration                         : 1h 31mn
Overall bit rate                 : 20.2 Mbps
Movie name                       : Rocky IV (1985) [Hurtom] by ratbol
Encoded date                     : UTC 2012-02-14 15:55:41
Writing application              : mkvmerge v3.2.0 ('Beginnings') built on Feb 12 2010 16:46:17
Writing library                  : libebml v0.7.9 + libmatroska v0.8.1

Video
ID                               : 1
Format                           : AVC
Format/Info                      : Advanced Video Codec
Format profile                   : [email protected]
Format settings, CABAC           : Yes
Format settings, ReFrames        : 4 frames
Codec ID                         : V_MPEG4/ISO/AVC
Duration                         : 1h 31mn
Bit rate                         : 18.3 Mbps
Width                            : 1 920 pixels
Height                           : 1 040 pixels
Display aspect ratio             : 16:9
Frame rate                       : 23.976 fps
Color space                      : YUV
Chroma subsampling               : 4:2:0
Bit depth                        : 8 bits
Scan type                        : Progressive
Bits/(Pixel*Frame)               : 0.382
Stream size                      : 11.4 GiB (89%)
Title                            : Rocky IV (1985)
Writing library                  : core 76 r1271M 496d79d
Encoding settings                : cabac=1 / ref=4 / deblock=1:-3:-3 / analyse=0x3:0x113 / me=umh / subme=9 / psy=1 / psy_rd=1.0:0.0 /

mixed_ref=1 / me_range=24 / chroma_me=1 / trellis=2 / 8x8dct=1 / cqm=0 / deadzone=21,11 / chroma_qp_offset=-2 / threads=6 / nr=0 / decimate=1

/ mbaff=0 / bframes=4 / b_pyramid=0 / b_adapt=2 / b_bias=0 / direct=3 / wpredb=1 / keyint=250 / keyint_min=25 / scenecut=40 / rc_lookahead=70

/ rc=2pass / mbtree=1 / bitrate=18296 / ratetol=1.0 / qcomp=0.70 / qpmin=10 / qpmax=51 / qpstep=4 / cplxblur=20.0 / qblur=0.5 /

vbv_maxrate=50000 / vbv_bufsize=50000 / ip_ratio=1.30 / aq=1:1.00
Language                         : English
Default                          : Yes
Forced                           : No

Audio #1
ID                               : 2
Format                           : AC-3
Format/Info                      : Audio Coding 3
Mode extension                   : CM (complete main)
Codec ID                         : A_AC3
Duration                         : 1h 31mn
Bit rate mode                    : Constant
Bit rate                         : 384 Kbps
Channel(s)                       : 6 channels
Channel positions                : Front: L C R, Side: L R, LFE
Sampling rate                    : 48.0 KHz
Bit depth                        : 16 bits
Compression mode                 : Lossy
Stream size                      : 251 MiB (2%)
Title                            : 5.1 [384 Kbps] - багатоголосий закадровий, Так Треба Продакшн (Інтер)
Language                         : Ukrainian
Default                          : Yes
Forced                           : No

Audio #2
ID                               : 3
Format                           :
Format/Info                      : Digital Theater Systems
Codec ID                         : A_DTS
Duration                         : 1h 31mn
Bit rate mode                    : Constant
Bit rate                         : 1 510 Kbps
Channel(s)                       : 6 channels
Channel positions                : Front: L C R, Side: L R, LFE
Sampling rate                    : 48.0 KHz
Bit depth                        : 24 bits
Compression mode                 : Lossy
Delay relative to video          : 11ms
Stream size                      : 988 MiB (7%)
Title                            : 5.1 [1 510 Kbps]
Language                         : English
Default                          : No
Forced                           : No

Text #1
ID                               : 4
Format                           : UTF-8
Codec ID                         : S_TEXT/UTF8
Codec ID/Info                    : UTF-8 Plain Text
Title                            : форсовані
Language                         : Ukrainian
Default                          : No
Forced                           : No

Text #2
ID                               : 5
Format                           : UTF-8
Codec ID                         : S_TEXT/UTF8
Codec ID/Info                    : UTF-8 Plain Text
Title                            : повні (ліцензія R5)
Language                         : Ukrainian
Default                          : No
Forced                           : No

Text #3
ID                               : 6
Format                           : UTF-8
Codec ID                         : S_TEXT/UTF8
Codec ID/Info                    : UTF-8 Plain Text
Title                            : SDH
Language                         : English
Default                          : No
Forced                           : No

Menu
00:00:00.000                     : :Main Title/Family
00:08:04.817                     : :Drago Arrives
00:12:33.586                     : :Apollo's Challenge
00:20:11.210                     : :Living In America
00:26:20.036                     : :Apollo vs Drago
00:33:56.868                     : :"I'm a Fighter"
00:41:20.769                     : :No Easy Way Out
00:45:47.035                     : :Father & Son
00:48:22.900                     : :Burning Heart/Russia
00:55:06.970                     : :Training Warriors
00:59:57.760                     : :Hearts On Fire
01:04:11.264                     : :"Death From Above"
01:09:59.486                     : :Rocky vs Drago
01:20:39.376                     : :The Final Round
01:24:51.211                     : :"Everyone Can Change"
01:27:22.946                     : :End Credits
Скріншоти




Роккі V / Rocky V (1990) 1080p Ukr/Eng | Sub Ukr/Eng


Роккі V / Rocky V (1990) 1080p Ukr/Eng | Sub Ukr/Eng

Роккі - Антологія / Rocky - Anthology (1976-2006) 1080p Ukr/Eng | Sub Ukr/Eng




Кіностудія / кінокомпанія: Chartoff-Winkler Productions | Star Partners II Ltd. | United Artists
Режисер: Джон Г. Евілдсен
Актори: Сільвестр Сталлоне, Талія Шайр, Берт Янг, Сейдж Сталлоне, Берджесс Мередіт, Томмі Моррісон, Річард Гант, Тоня Бертон, Джіммі Гамбіна, Делія Шеппард

Сюжет:
Після поєдинку з радянським чемпіоном Іваном Драго, боксерська кар'єра Роккі добігає кінця. Здоров'я втрачене, та і вік вже ветеранський. А всі зароблені потом і кров'ю заощадження вкрадені. Отже єдине, що йому залишається - це перейти на тренерську роботу. Але і там не все спокійно, його учень, що подає надії, кидає Роккі і вирушає до іншого тренера. Але жодні удари долі не зможуть зломити характер Роккі. Навіть у ситуації, що склалася, він не втрачає віри в свою щасливу зірку і знаходить в собі сили для нових досягнень.

Тривалість: 01:44:10
Відео:
кодек:
розмір кадру: 1920 х 1040
бітрейт: 12.2 Мбіт/с

Аудіо # 1:
мова: українська
переклад: багатоголосий закадровий, Так Треба Продакшн (Інтер)
кодек: 5.1
бітрейт: 384 Кбіт/с

Аудіо # 2:
мова: англійська
переклад: оригінал
кодек: 5.1
бітрейт: 1 510 Кбіт/с

Субтитри # 1:
мова: українська (форсовані)
тип: програмні (м'які)
формат: *.srt

Субтитри # 2:
мова: українська (повні, ліцензія R5)
тип: програмні (м'які)
формат: *.srt

Субтитри # 3:
мова: англійська (SDH)
тип: програмні (м'які)
формат: *.srt

MediaInfo
Код:
General
Unique ID                        : 206166434530229899342335489636938467858 (0x9B1A3602B71D3E9BB63665105C02CA12)
Complete name                    : E:\Роккі. Антологія\Роккі V [Rocky V] (1990) 1080p [Hurtom].mkv
Format                           : Matroska
Format version                   : Version 2
File size                        : 10.3 GiB
Duration                         : 1h 44mn
Overall bit rate                 : 14.1 Mbps
Movie name                       : Rocky V (1990) [Hurtom] by ratbol
Encoded date                     : UTC 2012-02-14 17:05:39
Writing application              : mkvmerge v3.2.0 ('Beginnings') built on Feb 12 2010 16:46:17
Writing library                  : libebml v0.7.9 + libmatroska v0.8.1

Video
ID                               : 1
Format                           : AVC
Format/Info                      : Advanced Video Codec
Format profile                   : [email protected]
Format settings, CABAC           : Yes
Format settings, ReFrames        : 4 frames
Codec ID                         : V_MPEG4/ISO/AVC
Duration                         : 1h 44mn
Bit rate                         : 12.2 Mbps
Width                            : 1 920 pixels
Height                           : 1 040 pixels
Display aspect ratio             : 16:9
Frame rate                       : 23.976 fps
Color space                      : YUV
Chroma subsampling               : 4:2:0
Bit depth                        : 8 bits
Scan type                        : Progressive
Bits/(Pixel*Frame)               : 0.255
Stream size                      : 8.69 GiB (85%)
Title                            : Rocky V (1990)
Writing library                  : core 76 r1271M 496d79d
Encoding settings                : cabac=1 / ref=4 / deblock=1:-3:-3 / analyse=0x3:0x113 / me=umh / subme=9 / psy=1 / psy_rd=1.0:0.0 /

mixed_ref=1 / me_range=24 / chroma_me=1 / trellis=2 / 8x8dct=1 / cqm=0 / deadzone=21,11 / chroma_qp_offset=-2 / threads=6 / nr=0 / decimate=1

/ mbaff=0 / bframes=4 / b_pyramid=0 / b_adapt=2 / b_bias=0 / direct=3 / wpredb=1 / keyint=250 / keyint_min=25 / scenecut=40 / rc_lookahead=70

/ rc=2pass / mbtree=1 / bitrate=12222 / ratetol=1.0 / qcomp=0.70 / qpmin=10 / qpmax=51 / qpstep=4 / cplxblur=20.0 / qblur=0.5 /

vbv_maxrate=50000 / vbv_bufsize=50000 / ip_ratio=1.30 / aq=1:1.00
Language                         : English
Default                          : Yes
Forced                           : No

Audio #1
ID                               : 2
Format                           : AC-3
Format/Info                      : Audio Coding 3
Mode extension                   : CM (complete main)
Codec ID                         : A_AC3
Duration                         : 1h 44mn
Bit rate mode                    : Constant
Bit rate                         : 384 Kbps
Channel(s)                       : 6 channels
Channel positions                : Front: L C R, Side: L R, LFE
Sampling rate                    : 48.0 KHz
Bit depth                        : 16 bits
Compression mode                 : Lossy
Stream size                      : 286 MiB (3%)
Title                            : 5.1 [384 Kbps] - багатоголосий закадровий, Так Треба Продакшн (Інтер)
Language                         : Ukrainian
Default                          : Yes
Forced                           : No

Audio #2
ID                               : 3
Format                           :
Format/Info                      : Digital Theater Systems
Codec ID                         : A_DTS
Duration                         : 1h 44mn
Bit rate mode                    : Constant
Bit rate                         : 1 510 Kbps
Channel(s)                       : 6 channels
Channel positions                : Front: L C R, Side: L R, LFE
Sampling rate                    : 48.0 KHz
Bit depth                        : 24 bits
Compression mode                 : Lossy
Delay relative to video          : 11ms
Stream size                      : 1.10 GiB (11%)
Title                            : 5.1 [1 510 Kbps]
Language                         : English
Default                          : No
Forced                           : No

Text #1
ID                               : 4
Format                           : UTF-8
Codec ID                         : S_TEXT/UTF8
Codec ID/Info                    : UTF-8 Plain Text
Title                            : форсовані
Language                         : Ukrainian
Default                          : No
Forced                           : No

Text #2
ID                               : 5
Format                           : UTF-8
Codec ID                         : S_TEXT/UTF8
Codec ID/Info                    : UTF-8 Plain Text
Title                            : повні, (ліцензія R5)
Language                         : Ukrainian
Default                          : No
Forced                           : No

Text #3
ID                               : 6
Format                           : UTF-8
Codec ID                         : S_TEXT/UTF8
Codec ID/Info                    : UTF-8 Plain Text
Title                            : SDH
Language                         : English
Default                          : No
Forced                           : No

Menu
00:00:00.000                     : :Main Title/Hurt
00:05:26.326                     : :Full-Court Press
00:09:31.570                     : :Born Again
00:14:58.522                     : :Damages
00:20:10.375                     : :Memories
00:26:51.693                     : :The Old Neighborhood
00:32:25.401                     : :Talkin' Business
00:38:22.675                     : :Street Fighting
00:43:52.129                     : :Home Team
00:51:32.047                     : :Training
00:58:16.951                     : :Ship Sinking
01:03:51.786                     : :Scams and Deceptions
01:15:59.513                     : :You and Me
01:18:50.809                     : :Title Fight
01:24:31.816                     : :The Real Champ
01:38:39.580                     : :Family/End Credits
Скріншоти




Роккі Бальбоа / Rocky Balboa (2006) 1080p Ukr/Eng | Sub Ukr/Eng


Роккі Бальбоа / Rocky Balboa (2006) 1080p Ukr/Eng | Sub Ukr/Eng

Роккі - Антологія / Rocky - Anthology (1976-2006) 1080p Ukr/Eng | Sub Ukr/Eng




Кіностудія / кінокомпанія: Chartoff-Winkler Productions | Columbia Pictures | Metro-Goldwyn-Mayer (MGM) | Revolution Studios | Rogue Marble
Режисер: Сільвестр Сталлоне
Актори: Сільвестр Сталлоне, Берт Янг, Антоніо Тервер, Джеральдін Хьюз, Майло Вентімілья, Тоня Бертон, А Дж. Бенза, Джеймс Френсис Келлі III, Талія Шайр

Сюжет:
Роккі відійшов від справ, зайнявся ресторанним бізнесом і все ще важко переживає смерть своєї дружини Едріан. Намагаючись розвіяти порожнечу, що утворилася, Бальбоа вирішує повернутися на ринг для боїв місцевого значення з боксерами в легкій вазі. Але коли він погоджується виступити проти діючого чемпіона-важкоатлета Мейсона Діксона, преса несподівано виявляє до повернення Роккі великий інтерес.

Тривалість: 01:41:46
Відео:
кодек:
розмір кадру: 1920 х 1038
бітрейт: 15.8 Мбіт/с

Аудіо # 1:
мова: українська
переклад: багатоголосий закадровий, Так Треба Продакшн (Інтер)
кодек: 5.1
бітрейт: 448 Кбіт/с

Аудіо # 2:
мова: англійська
переклад: оригінал
кодек: 5.1
бітрейт: 1 510 Кбіт/с

Аудіо # 3:
мова: англійська
переклад: коментарі Сільвестра Сталлоне
кодек: 2.0
бітрейт: 192 Кбіт/с

Субтитри # 1:
мова: українська (форсовані)
тип: програмні (м'які)
формат: *.srt

Субтитри # 2:
мова: українська (повні, ліцензія R5)
тип: програмні (м'які)
формат: *.srt

Субтитри # 3:
мова: англійська (повні)
тип: програмні (м'які)
формат: *.srt

Субтитри # 3:
мова: англійська (SDH)
тип: програмні (м'які)
формат: *.srt

MediaInfo
Код:
General
Unique ID                        : 209473448168904785261891900861143650845 (0x9D971E5F139D8DBABF9F0697ACE9121D)
Complete name                    : E:\Роккі. Антологія\Роккі Бальбоа [Rocky Balboa] (2006) 1080p [Hurtom].mkv
Format                           : Matroska
Format version                   : Version 2
File size                        : 12.8 GiB
Duration                         : 1h 41mn
Overall bit rate                 : 18.0 Mbps
Movie name                       : Rocky Balboa (2006) - [Hurtom] by ratbol
Encoded date                     : UTC 2012-02-14 17:56:52
Writing application              : mkvmerge v3.2.0 ('Beginnings') built on Feb 12 2010 16:46:17
Writing library                  : libebml v0.7.9 + libmatroska v0.8.1

Video
ID                               : 1
Format                           : AVC
Format/Info                      : Advanced Video Codec
Format profile                   : [email protected]
Format settings, CABAC           : Yes
Format settings, ReFrames        : 4 frames
Codec ID                         : V_MPEG4/ISO/AVC
Duration                         : 1h 41mn
Bit rate                         : 15.8 Mbps
Width                            : 1 920 pixels
Height                           : 1 038 pixels
Display aspect ratio             : 1.850
Frame rate                       : 23.976 fps
Color space                      : YUV
Chroma subsampling               : 4:2:0
Bit depth                        : 8 bits
Scan type                        : Progressive
Bits/(Pixel*Frame)               : 0.331
Stream size                      : 11.0 GiB (86%)
Title                            : Rocky Balboa (2006)
Writing library                  : core 75 r1259M dd026f2
Encoding settings                : cabac=1 / ref=4 / deblock=1:-3:-3 / analyse=0x3:0x113 / me=umh / subme=9 / psy=1 / psy_rd=1.3:0.0 /

mixed_ref=1 / me_range=24 / chroma_me=1 / trellis=2 / 8x8dct=1 / cqm=0 / deadzone=21,11 / chroma_qp_offset=-2 / threads=6 / nr=0 / decimate=1

/ mbaff=0 / bframes=5 / b_pyramid=0 / b_adapt=2 / b_bias=0 / direct=3 / wpredb=1 / keyint=250 / keyint_min=25 / scenecut=40 / rc_lookahead=70

/ rc=2pass / mbtree=1 / bitrate=15800 / ratetol=1.0 / qcomp=0.80 / qpmin=10 / qpmax=51 / qpstep=4 / cplxblur=20.0 / qblur=0.5 / ip_ratio=1.30

/ aq=1:0.80
Language                         : English
Default                          : No
Forced                           : No

Audio #1
ID                               : 2
Format                           : AC-3
Format/Info                      : Audio Coding 3
Mode extension                   : CM (complete main)
Codec ID                         : A_AC3
Duration                         : 1h 41mn
Bit rate mode                    : Constant
Bit rate                         : 448 Kbps
Channel(s)                       : 6 channels
Channel positions                : Front: L C R, Side: L R, LFE
Sampling rate                    : 48.0 KHz
Bit depth                        : 16 bits
Compression mode                 : Lossy
Stream size                      : 326 MiB (2%)
Title                            : 5.1 [448 Kbps] - багатоголосий закадровий, Так Треба Продакшн (Інтер)
Language                         : Ukrainian
Default                          : Yes
Forced                           : No

Audio #2
ID                               : 3
Format                           :
Format/Info                      : Digital Theater Systems
Codec ID                         : A_DTS
Duration                         : 1h 41mn
Bit rate mode                    : Constant
Bit rate                         : 1 510 Kbps
Channel(s)                       : 6 channels
Channel positions                : Front: L C R, Side: L R, LFE
Sampling rate                    : 48.0 KHz
Bit depth                        : 16 bits
Compression mode                 : Lossy
Delay relative to video          : 11ms
Stream size                      : 1.07 GiB (8%)
Title                            : 5.1 [1 510 Kbps]
Language                         : English
Default                          : No
Forced                           : No

Audio #3
ID                               : 4
Format                           : AC-3
Format/Info                      : Audio Coding 3
Format profile                   : Dolby Digital
Mode extension                   : CM (complete main)
Codec ID                         : A_AC3
Duration                         : 1h 41mn
Bit rate mode                    : Constant
Bit rate                         : 192 Kbps
Channel(s)                       : 2 channels
Channel positions                : Front: L R
Sampling rate                    : 48.0 KHz
Bit depth                        : 16 bits
Compression mode                 : Lossy
Stream size                      : 140 MiB (1%)
Title                            : 2.0 [192 Kbps] - коментарі Сільвестра Сталлоне
Language                         : English
Default                          : No
Forced                           : No

Text #1
ID                               : 5
Format                           : UTF-8
Codec ID                         : S_TEXT/UTF8
Codec ID/Info                    : UTF-8 Plain Text
Title                            : форсовані
Language                         : Ukrainian
Default                          : No
Forced                           : No

Text #2
ID                               : 6
Format                           : UTF-8
Codec ID                         : S_TEXT/UTF8
Codec ID/Info                    : UTF-8 Plain Text
Title                            : повні (ліцензія R5)
Language                         : Ukrainian
Default                          : No
Forced                           : No

Text #3
ID                               : 7
Format                           : UTF-8
Codec ID                         : S_TEXT/UTF8
Codec ID/Info                    : UTF-8 Plain Text
Title                            : повні
Language                         : English
Default                          : No
Forced                           : No

Text #4
ID                               : 8
Format                           : UTF-8
Codec ID                         : S_TEXT/UTF8
Codec ID/Info                    : UTF-8 Plain Text
Title                            : SDH
Language                         : English
Default                          : No
Forced                           : No

Menu
00:00:00.000                     : :Opening Credits/Fight
00:11:38.114                     : :The Tour
00:16:42.876                     : :Marie
00:25:20.644                     : :Special Guests
00:30:46.678                     : :A Lot of Good Mileage Left
00:40:48.654                     : :The Beast Inside
00:43:18.429                     : :What's Right
00:46:09.641                     : :Legacy on the Line
00:51:22.579                     : :Paulie Takes a Hit
01:00:41.971                     : :The Hardest Hitter
01:05:03.649                     : :A New Corner Man
01:06:26.565                     : :Building Hurtin' Bombs
01:13:23.857                     : :The Chairman & the Stallion
01:21:23.795                     : :Heavy Bag vs. Punching Bag
01:29:49.008                     : :The Stuff in the Basement
01:33:10.710                     : :Valedictory/"We Did It."
Скріншоти




Цитата:
Збережено оригінальні чаптери як на Blu-Ray

Цитата з HDCLUB написано:
Субтитри з DVD R5 (20th Century Fox) стали доступні завдяки 8bitman, arestarh, Кіноша, велике їм спасибі за надану допомогу!


Подяка rodotron005, SweetN та dbdeveloper - за надані записи звуку, Romario_O - за їхню синхронізацію, hellforces - за українізацію постерів


Джерело: та
Особиста оцінка: 10 - рекомендую

Золотий реліз (завантажене не впливає на рейтинг)
 Трекер:    Зареєстрований   

Завантажити / скачати фільм українською



відео для новачків



 Зареєстрований:   2012-02-17 00:22
 Розмір:   78.56 GB 
 Оцінка фільму:   9.9/10 (Голосів: 36)
   
Інші релізи
Віктор 
Відео Гуртом - субтитрування
Відео Гуртом - субтитрування


З нами з: 09.01.10
Востаннє: 08.12.16
Повідомлень: 8663

2012-02-17 01:35  
Ох тут перевіряти пів-години мінімум) Ставлю поки що золото. Romario_O синхронізував доріжки. Стосовно укр. субтитрів допишіть те що вказано на hdclub-i.
DiGen 
Модератор HD та координатор Команди HD
Модератор HD та координатор Команди HD


З нами з: 12.11.09
Востаннє: 24.06.13
Повідомлень: 1452

2012-02-17 22:15  
w2958l написано:
Ставлю поки що золото

Але ж має бути Срібло

Віктор 
Відео Гуртом - субтитрування
Відео Гуртом - субтитрування


З нами з: 09.01.10
Востаннє: 08.12.16
Повідомлень: 8663

2012-02-17 22:26  
DiGen написано:
Але ж має бути Срібло

Вага релізу як три-чотири блю рея. Усе гарно розписано і нормально оформлено тому золото тут доречне.

VIKTORCV1 
Новенький


З нами з: 03.09.09
Востаннє: 28.09.16
Повідомлень: 5

2012-08-04 21:57  
БРАТЕ, ГАЗУ. ДЯКУЮ ЗА ЯКІСТЬ І УКР. МОВУ.
DIMUTRELLY 
Новенький


З нами з: 09.06.10
Востаннє: 27.11.16
Повідомлень: 4

2012-10-14 17:02  
Це шедевр !!!!!
andriytruba1995 
Новенький


З нами з: 13.01.13
Востаннє: 03.12.16
Повідомлень: 2

2013-03-08 22:09  
Станьте на роздачу, будь ласка.
RMK 
Відео Гуртом - підтримка та поширення
Відео Гуртом - підтримка та поширення


З нами з: 12.05.10
Востаннє: 08.12.16
Повідомлень: 78

2013-11-29 12:51  
Неймовірний реліз... Автору велике Дякую)))
Давно мрія переглянути всі частину, а ту українською, та й ще й FullHD)
...
Дуже прошу, дайте швидкості)

_skilled_ 
Новенький


З нами з: 02.05.15
Востаннє: 20.11.15
Повідомлень: 6

2015-06-17 20:30  
Поверніться на роздачу, ті хто завантажили. Дайте й іншим можливість пережити знов хвилювання при перегляді цих фільмів) Дякую.
FullofMetal 
Частий відвідувач


З нами з: 22.08.09
Востаннє: 07.12.16
Повідомлень: 27

2016-01-03 20:36  
Шановне панство, станьте хтось на роздачу цього шедевру.
Ваш часовий пояс: GMT + 2 Години

Нова тема   Відповісти