Завантажити та скачати торренти українською


Божичі - Дискографія (6 альбомів) (2004-2011) [FLAC] | Folk

Нові коментарі

Нова тема   Відповісти
Автор Повідомлення
gosha.samovar 
VIP


З нами з: 08.09.10
Востаннє: 06.12.16
Повідомлень: 400

2012-02-16 19:29  
Божичі - Дискографія (6 альбомів) (2004-2011) [FLAC] | Folk

Божичі - Дискографія (6 альбомів) (2004-2011) [FLAC] | Folk


Стиль: Folk
Країна, місто: Україна, Київ
Сайти: Офіційний сайт

Пісні:
Божичі - Котилася, ой, ясна зоря з неба (2004)
    01. Ой, ти ноч, моя ноч - протяжна
    02. Ой, петрівняя зозуленька - петрівка
    03. Вальс "Баламут" - танець
    04. Задумав дідочок - жартівлива
    05. Ой, ішли корови з діброви - протяжна
    06. Ой, поля, ви поля - протяжна
    07. Шо учора із вечора - "на церковний голос"
    08. Здорова, кума - жартівлива
    09. Як задумав я жениться - жартівлива
    10. Весільні обрядові пісні
      а) Шо в нашом сєлє - на початку весілля
      б) Соловейко да на вилеті - вирушає "поїзд" молодого
      в) Ой, ходила да Галочка - під час вбирання молодої
      г) Пусти, свате, в хату - "поїзд" молодого стоїть під двором молодої
      д) Шо в нашого свата солом`яна хата - "поїзд" молодого стоїть під двором молодої
      є) Шо в нашого свата усього багато - молодого з родом пропускають у двір молодої
      ж) Братіку, да не лякайся - брат молодої продає сестру
      з) Братік увлєкнувся - брат молодої продав сестру
      і) Татарин, братко, татарин - брат молодої продав сестру
      ї) На калині соловейко - молоді сідають на посаді
      и) Край, дружбонько, коровай - старший дружок (дядько молодої) ріже коровай
    11. Українські страдання з Олегом Скрипкою - приспівки до танцю
    12. Шо на горкє спал туман - солдатська
    13. Із-за гори, із-за кручі - чумацька
    14. У неділю рано синє море грало - строков
    15. Картошка - танець
    16. Очерет лугом гуде - жартівлива
    17. Пішла Дуня жито жати - жартівлива
    18. Котилася, ой, ясна зоря з неба - протяжна

Бонус-відео
Котилася, ой, ясна зоря з неба
Тривалість: 00:05:41
кодек: MPEG1
розмір кадру: 384 x 288
бітрейт: кб/с 2500Kbps

Аудіо:
мова: українська
кодек: MPEG
бітрейт: кб/с 224Kbps
Скріншоти
Тривалість: 00:52:52
Мова: українська
Аудіо-кодек: FLAC
Бітрейт: 826 кб/с
Виконавці:
    Валерій Гладунець
    Ілля Фетисов
    Марія Фірсова
    Ольга Карапата
    Катя Ковшун
    Наталя Сербіна
    Ірина Корінь
    Сусанна Карпенко
    Анна Архіпчук
EAC log
Exact Audio Copy V1.0 beta 3 from 29. August 2011

Отчёт EAC об извлечении, выполненном 17. января 2012, 22:51

Божичі / Котилася, ой, ясна зоря з неба

Дисковод: PHILIPS SPD2519T Adapter: 2 ID: 0

Режим чтения : Достоверность
Использование точного потока : Да
Отключение кэша аудио : Да
Использование указателей C2 : Нет

Коррекция смещения при чтении : 6
Способность читать области Lead-in и Lead-out : Нет
Заполнение пропущенных сэмплов тишиной : Да
Удаление блоков с тишиной в начале и конце : Нет
При вычислениях CRC использовались нулевые сэмплы : Да
Интерфейс : Встроенный Win32-интерфейс для Win NT/2000

Выходной формат : Пользовательский кодировщик
Выбранный битрейт : 1024 kBit/s
Качество : Высокий
Добавление ID3-тега : Нет
Утилита сжатия : D:\soft_2\EAC\Exact Audio Copy\Flac\flac.exe
Дополнительные параметры : -V -8 -T "Date=%year%" -T "Genre=%genre%" %source%

TOC извлечённого CD

Трек | Старт | Длительность | Начальный сектор | Конечный сектор
---------------------------------------------------------------------
1 | 0:00.00 | 3:03.13 | 0 | 13737
2 | 3:03.13 | 2:39.24 | 13738 | 25686
3 | 5:42.37 | 2:08.42 | 25687 | 35328
4 | 7:51.04 | 1:34.31 | 35329 | 42409
5 | 9:25.35 | 3:32.33 | 42410 | 58342
6 | 12:57.68 | 3:32.00 | 58343 | 74242
7 | 16:29.68 | 3:22.35 | 74243 | 89427
8 | 19:52.28 | 3:08.68 | 89428 | 103595
9 | 23:01.21 | 2:04.37 | 103596 | 112932
10 | 25:05.58 | 7:22.45 | 112933 | 146127
11 | 32:28.28 | 1:55.40 | 146128 | 154792
12 | 34:23.68 | 1:18.38 | 154793 | 160680
13 | 35:42.31 | 2:14.00 | 160681 | 170730
14 | 37:56.31 | 3:37.36 | 170731 | 187041
15 | 41:33.67 | 3:17.11 | 187042 | 201827
16 | 44:51.03 | 1:20.49 | 201828 | 207876
17 | 46:11.52 | 1:30.28 | 207877 | 214654
18 | 47:42.05 | 5:08.60 | 214655 | 237814
19 | 55:22.65 | 12:48.27 | 249215 | 306841

Характеристики диапазона извлечения и сообщения об ошибках

Выбранный диапазон

Имя файла E:\Музіка!\from EAC\Божичі - Котилася, ой, ясна зоря з неба.wav

Пиковый уровень 97.7 %
Скорость извлечения 7.1 X
Качество диапазона 100.0 %
CRC теста 132871CC
CRC копии 132871CC
Копирование... OK

Ошибок не произошло

Конец отчёта

==== Контрольная сумма отчёта C760BD15122BC1B419BFE42DD25B835277981306A448E12E77CE6D6087642CFF ====
Спектр

Щоб уникнути непорозумінь, до даного диску показано спетр альбому вцілому, а не першого треку.
Божичі - Шо з Києва та й до Русалима. Колядницькі пісні (2005)
    01. Ой, дай, Боже, вечір добрий - колядка
    02. У городі Віфліємі случилася новина - колядка
    03. Слава й Отцу і Сину - "славлять Христа"
    04. На Йорданській річці - колядка
    05. Ой, ходіть-паходіть мєсєц па нєбу - колядка
    06. Рожество твоє, Христе боже наш - до "Звєзди"
    07. Дєва днєсь - до "Звєзди"
    08. Младенець-первенець - до "Звєзди"
    09. В обрішнє літо начинає - колядка
    10. Шо йу мамочки одна дочєчка - колядка дівчині
    11. Ой, по горі-горі - "дядьківська" колядка
    12. Шо в пана хазяїна да на його дворі - щедрівка "березою"
    13. У полі-полі сам плужок ходить - "засівають"
    14. Шо в цім двірку як у вінку - щедрівка господарям
    15. Ого-го, каза, ого-го, сіра - "Коза"
    16. Сів Сус Христос да вечеряти - щедрівка
    17. У полі, в полі військо стояло - колядка хлопцю
    18. Шо за гаєм-гаєм, гаєм зелененьким - щедрівка хлопцю
    19. Шо з Києва та й до Русалима - колядка

Тривалість: 00:53:27
Мова: українська
Аудіо-кодек: FLAC
Бітрейт: 734 кб/с
Виконавці:
    Олександр Толокно
    Ольга Верес
    Анна Архіпчук
    Ірина Корінь
    Марія Фірсова
    Сусанна Карпенко
    Ілля Фетисов
    Валерій Гладунець
    Катерина Ковшун
    Ольга Карапата
EAC log
Exact Audio Copy V1.0 beta 3 from 29. August 2011

Отчёт EAC об извлечении, выполненном 19. января 2012, 22:15

Божичі / Шо з Києва та й до Русалима. Колядницькі пісні

Дисковод: PHILIPS SPD2519T Adapter: 2 ID: 0

Режим чтения : Достоверность
Использование точного потока : Да
Отключение кэша аудио : Да
Использование указателей C2 : Нет

Коррекция смещения при чтении : 6
Способность читать области Lead-in и Lead-out : Нет
Заполнение пропущенных сэмплов тишиной : Да
Удаление блоков с тишиной в начале и конце : Нет
При вычислениях CRC использовались нулевые сэмплы : Да
Интерфейс : Встроенный Win32-интерфейс для Win NT/2000

Выходной формат : Пользовательский кодировщик
Выбранный битрейт : 1024 kBit/s
Качество : Высокий
Добавление ID3-тега : Нет
Утилита сжатия : D:\soft_2\EAC\Exact Audio Copy\Flac\flac.exe
Дополнительные параметры : -V -8 -T "Date=%year%" -T "Genre=%genre%" %source%

TOC извлечённого CD

Трек | Старт | Длительность | Начальный сектор | Конечный сектор
---------------------------------------------------------------------
1 | 0:00.00 | 3:33.26 | 0 | 16000
2 | 3:33.26 | 3:56.26 | 16001 | 33726
3 | 7:29.52 | 3:12.51 | 33727 | 48177
4 | 10:42.28 | 2:04.47 | 48178 | 57524
5 | 12:47.00 | 2:53.52 | 57525 | 70551
6 | 15:40.52 | 0:57.13 | 70552 | 74839
7 | 16:37.65 | 1:26.34 | 74840 | 81323
8 | 18:04.24 | 2:55.55 | 81324 | 94503
9 | 21:00.04 | 2:55.23 | 94504 | 107651
10 | 23:55.27 | 2:23.14 | 107652 | 118390
11 | 26:18.41 | 4:05.43 | 118391 | 136808
12 | 30:24.09 | 2:25.56 | 136809 | 147739
13 | 32:49.65 | 0:40.74 | 147740 | 150813
14 | 33:30.64 | 2:13.36 | 150814 | 160824
15 | 35:44.25 | 3:42.42 | 160825 | 177516
16 | 39:26.67 | 4:34.36 | 177517 | 198102
17 | 44:01.28 | 3:07.33 | 198103 | 212160
18 | 47:08.61 | 2:31.44 | 212161 | 223529
19 | 49:40.30 | 3:45.44 | 223530 | 240448

Характеристики диапазона извлечения и сообщения об ошибках

Выбранный диапазон

Имя файла E:\Музіка!\from EAC\Божичі - Шо з Києва та й до Русалима. Колядницькі пісні.wav

Пиковый уровень 100.0 %
Скорость извлечения 7.2 X
Качество диапазона 100.0 %
CRC теста 1F926266
CRC копии 1F926266
Копирование... OK

Ошибок не произошло

Конец отчёта

==== Контрольная сумма отчёта 09A628B11C3D5125B9050E0CA0CAA12ED4F06271C5FEC537DB0A9E6BA10F1703 ====
Спектр
Божичі - Вік любиш – не налюбишся. Пісні про кохання (2007)
    01. Я птичка-невеличка - кант
    02. Орлиця - танець
    03. Ой, ти дубе, та й кучерявий - протяжна
    04. Ой, за гаєм-гаєм давай посідаєм - жартівлива
    05. Уляно, Уляно, чого ходиш-блудиш - протяжна
    06. Да ходив комар по лугу - жартівлива
    07. Триколінний гопак - танець
    08. Не щебечи, соловейко - романс
    09. Да просив мене Герасим - жартівлива
    10. Да повінь, вітре, та й буйнесенький - протяжна
    11. Гречаники - танець
    12. Дівчина-красотка в розкошах жила - протяжна
    13. Да було в тьощі п`ять зятів - жартівлива
    14. Ой, на дубові та гілки гнуться - протяжна
    15. Полька "двадцять третя" - танець
    16. Їхав козак на війноньку - протяжна
    17. Ішов козак із походу - жартівлива
    18. Сохне-в`яне да травушка - протяжна

Тривалість: 01:03:25
Мова: українська (01-06, 08-18); відсутня (07)
Аудіо-кодек: FLAC
Бітрейт: 746 кб/с
Виконавці:
    Анна Архіпчук
    Олександр Толокно
    Ірина Борисенко
    Ілля Фетисов
    Марія Фірсова
    Сусанна Карпенко
    Валерій Гладунець
    Ольга Карапата
EAC log
Exact Audio Copy V1.0 beta 3 from 29. August 2011

Отчёт EAC об извлечении, выполненном 19. января 2012, 21:22

Божичі / Вік любиш – не налюбишся. Пісні про кохання

Дисковод: PHILIPS SPD2519T Adapter: 2 ID: 0

Режим чтения : Достоверность
Использование точного потока : Да
Отключение кэша аудио : Да
Использование указателей C2 : Нет

Коррекция смещения при чтении : 6
Способность читать области Lead-in и Lead-out : Нет
Заполнение пропущенных сэмплов тишиной : Да
Удаление блоков с тишиной в начале и конце : Нет
При вычислениях CRC использовались нулевые сэмплы : Да
Интерфейс : Встроенный Win32-интерфейс для Win NT/2000

Выходной формат : Пользовательский кодировщик
Выбранный битрейт : 1024 kBit/s
Качество : Высокий
Добавление ID3-тега : Нет
Утилита сжатия : D:\soft_2\EAC\Exact Audio Copy\Flac\flac.exe
Дополнительные параметры : -V -8 -T "Date=%year%" -T "Genre=%genre%" %source%

TOC извлечённого CD

Трек | Старт | Длительность | Начальный сектор | Конечный сектор
---------------------------------------------------------------------
1 | 0:00.01 | 5:14.10 | 1 | 23560
2 | 5:14.11 | 2:59.40 | 23561 | 37025
3 | 8:13.51 | 3:08.54 | 37026 | 51179
4 | 11:22.30 | 1:23.14 | 51180 | 57418
5 | 12:45.44 | 6:06.28 | 57419 | 84896
6 | 18:51.72 | 1:55.49 | 84897 | 93570
7 | 20:47.46 | 1:41.05 | 93571 | 101150
8 | 22:28.51 | 4:29.14 | 101151 | 121339
9 | 26:57.65 | 2:13.09 | 121340 | 131323
10 | 29:10.74 | 4:36.32 | 131324 | 152055
11 | 33:47.31 | 1:56.56 | 152056 | 160811
12 | 35:44.12 | 6:48.60 | 160812 | 191471
13 | 42:32.72 | 2:21.38 | 191472 | 202084
14 | 44:54.35 | 5:24.32 | 202085 | 226416
15 | 50:18.67 | 1:38.69 | 226417 | 233835
16 | 51:57.61 | 4:22.56 | 233836 | 253541
17 | 56:20.42 | 1:28.57 | 253542 | 260198
18 | 57:49.24 | 5:34.63 | 260199 | 285311

Характеристики диапазона извлечения и сообщения об ошибках

Выбранный диапазон

Имя файла E:\Музіка!\from EAC\Божичі - Вік любиш – не налюбишся. Пісні про кохання.wav

Пиковый уровень 97.2 %
Скорость извлечения 2.4 X
Качество диапазона 100.0 %
CRC теста 0B04F4E4
CRC копии 0B04F4E4
Копирование... OK

Ошибок не произошло

Конец отчёта

==== Контрольная сумма отчёта B30335EC345A5EC98A964679D3753FB808DFD1C6EC2EE93F4F5AA779D300B5FC ====
Спектр
Божичі та Сергій Охрімчук - Українські танці. Частина 1 (2008)
    01. Орлиця
    02. Нарєченька
    03. Полька "Кокетка" (київська Ойра)
    04. Коробочка
    05. Гречаники
    06. Карапет
    07. Падеспанець
    08. Молодичка
    09. Полька "23" (двооборотна)
    10. Яків
    11. І шумить, і гуде
    12. Жеревська полька
    13. Картошка
    14. Місяць

Тривалість: 00:50:18
Мова: українська(01, 02, 05, 06, 08, 10, 11, 13, 14); відсутня (03, 04, 07, 09, 12)
Аудіо-кодек: FLAC
Бітрейт: 993 кб/с
Виконавці:
    Сусанна Карпенко (бубон, спів)
    Ілля Фетисов (гармонь "венка", спів)
    Сергій Охрімчук (скрипка)
EAC log
Exact Audio Copy V1.0 beta 3 from 29. August 2011

Отчёт EAC об извлечении, выполненном 31. января 2012, 20:35

Божичі та Сергій Охрімчук / Українські танці. Частина 1

Дисковод: PHILIPS SPD2519T Adapter: 2 ID: 0

Режим чтения : Достоверность
Использование точного потока : Да
Отключение кэша аудио : Да
Использование указателей C2 : Нет

Коррекция смещения при чтении : 6
Способность читать области Lead-in и Lead-out : Нет
Заполнение пропущенных сэмплов тишиной : Да
Удаление блоков с тишиной в начале и конце : Нет
При вычислениях CRC использовались нулевые сэмплы : Да
Интерфейс : Встроенный Win32-интерфейс для Win NT/2000

Выходной формат : Пользовательский кодировщик
Выбранный битрейт : 1024 kBit/s
Качество : Высокий
Добавление ID3-тега : Нет
Утилита сжатия : D:\soft_2\EAC\Exact Audio Copy\Flac\flac.exe
Дополнительные параметры : -V -8 -T "Date=%year%" -T "Genre=%genre%" %source%

TOC извлечённого CD

Трек | Старт | Длительность | Начальный сектор | Конечный сектор
---------------------------------------------------------------------
1 | 0:00.00 | 4:33.18 | 0 | 20492
2 | 4:33.18 | 3:05.71 | 20493 | 34438
3 | 7:39.14 | 3:58.17 | 34439 | 52305
4 | 11:37.31 | 3:31.38 | 52306 | 68168
5 | 15:08.69 | 3:38.08 | 68169 | 84526
6 | 18:47.02 | 4:56.11 | 84527 | 106737
7 | 23:43.13 | 4:03.64 | 106738 | 125026
8 | 27:47.02 | 2:30.24 | 125027 | 136300
9 | 30:17.26 | 3:28.06 | 136301 | 151906
10 | 33:45.32 | 3:18.48 | 151907 | 166804
11 | 37:04.05 | 3:00.23 | 166805 | 180327
12 | 40:04.28 | 2:59.12 | 180328 | 193764
13 | 43:03.40 | 3:36.60 | 193765 | 210024
14 | 46:40.25 | 3:37.35 | 210025 | 226334

Характеристики диапазона извлечения и сообщения об ошибках

Выбранный диапазон

Имя файла E:\Музіка!\from EAC\Божичі та Сергій Охрімчук - Українські танці. Частина 1.wav

Пиковый уровень 100.0 %
Скорость извлечения 7.1 X
Качество диапазона 100.0 %
CRC теста 510888E0
CRC копии 510888E0
Копирование... OK

Ошибок не произошло

AccurateRip: сводка

Трек 1 отсутствует в базе данных
Трек 2 отсутствует в базе данных
Трек 3 отсутствует в базе данных
Трек 4 отсутствует в базе данных
Трек 5 отсутствует в базе данных
Трек 6 отсутствует в базе данных
Трек 7 отсутствует в базе данных
Трек 8 отсутствует в базе данных
Трек 9 отсутствует в базе данных
Трек 10 отсутствует в базе данных
Трек 11 отсутствует в базе данных
Трек 12 отсутствует в базе данных
Трек 13 отсутствует в базе данных
Трек 14 отсутствует в базе данных

Ни одного трека нет в базе AccurateRip

Конец отчёта

==== Контрольная сумма отчёта F1C077B4BB8E689E7FC549EA367BAA09431D002EE09A5B1DB57A92ECB4AFEBA2 ====
Спектр
Божичі - Псальми. Помишляйте, чєловєци (2009)
    01. Чіловіче Божественной
    02. Страдальная мати
    03. Зійшов Господь з неба
    04. Про блудного сина
    05. Червона калина
    06. Сидять люди за столами
    07. Де Господь походив
    08. Помишляйте, чєловєци

Тривалість: 00:42:28
Мова: українська
Аудіо-кодек: FLAC
Бітрейт: 613 кб/с
Виконавці:
    Сусанна Карпенко (керівник)
    Валерій Гладунець
    Ірина Борисенко
    Ольга Карапата
    Ганна Архіпчук
    Марія Кудрявцева
    Ілля Фетисов (керівник)
EAC log
Exact Audio Copy V1.0 beta 3 from 29. August 2011

Отчёт EAC об извлечении, выполненном 21. января 2012, 0:59

Божичі / Псальми. Помишляйте, чєловєци

Дисковод: PHILIPS SPD2519T Adapter: 2 ID: 0

Режим чтения : Достоверность
Использование точного потока : Да
Отключение кэша аудио : Да
Использование указателей C2 : Нет

Коррекция смещения при чтении : 6
Способность читать области Lead-in и Lead-out : Нет
Заполнение пропущенных сэмплов тишиной : Да
Удаление блоков с тишиной в начале и конце : Нет
При вычислениях CRC использовались нулевые сэмплы : Да
Интерфейс : Встроенный Win32-интерфейс для Win NT/2000

Выходной формат : Пользовательский кодировщик
Выбранный битрейт : 1024 kBit/s
Качество : Высокий
Добавление ID3-тега : Нет
Утилита сжатия : D:\soft_2\EAC\Exact Audio Copy\Flac\flac.exe
Дополнительные параметры : -V -8 -T "Date=%year%" -T "Genre=%genre%" %source%

TOC извлечённого CD

Трек | Старт | Длительность | Начальный сектор | Конечный сектор
---------------------------------------------------------------------
1 | 0:00.00 | 6:28.64 | 0 | 29163
2 | 6:28.64 | 4:19.57 | 29164 | 48645
3 | 10:48.46 | 6:11.59 | 48646 | 76529
4 | 17:00.30 | 3:03.42 | 76530 | 90296
5 | 20:03.72 | 5:34.40 | 90297 | 115386
6 | 25:38.37 | 4:30.12 | 115387 | 135648
7 | 30:08.49 | 5:28.63 | 135649 | 160311
8 | 35:37.37 | 6:50.46 | 160312 | 191107

Характеристики диапазона извлечения и сообщения об ошибках

Выбранный диапазон

Имя файла E:\Музіка!\from EAC\Божичі - Псальми. Помишляйте, чєловєци.wav

Пиковый уровень 80.0 %
Скорость извлечения 5.3 X
Качество диапазона 99.9 %
CRC теста 4825953C
CRC копии 4825953C
Копирование... OK

Ошибок не произошло

Конец отчёта

==== Контрольная сумма отчёта 92D064CD34110F541A467878ABBFDC3A4C6B30D0B16ECCE8F0A81FEE1E4745CA ====
Спектр
Божичі - Українські танці. Частина 2 (2011)
    01. Коханка
    02. Страданіє
    03. Полька
    04. Ойра
    05. Гречаники
    06. Козачок
    07. Восадулі
    08. Краков`як
    09. Полька
    10. Український Гопак
    11. Баламута
    12. Очерет
    13. Полька "Різуха"

Бонус-відео:
Коробочка
Тривалість: 00:01:35
кодек: MPEG4
розмір кадру: 1280 x 720
бітрейт: 2692 кб/с

Аудіо:
мова: українська(02, 05, 07, 08, 10, 11, 12, 14, 15); відсутня (01, 03, 04, 06, 09, 13)
кодек:
бітрейт: 167 Кб/с
Скріншоти
Падіспант
Тривалість: 00:02:01
кодек: MPEG4
розмір кадру: 1280 x 720
бітрейт: 2680 кб/с

Аудіо:
мова: українська
кодек:
бітрейт: 166 кб/с 1536Kbps
Скріншоти
Тривалість: 00:56:14
Мова: українська
Аудіо-кодек: FLAC
Бітрейт: 937 кб/с
Виконавці:
    01, 04, 07, 12, 13
    Сусанна Карпенко (бубон, спів)
    Ілля Фетисов (гармонь "венка", спів)
    Ірина Борисенко (спів)
    Сергій Охрімчук (скрипка)

    02, 03, 05, 06, 08-11
    Дмитро Левкович Мойсенко, 1937 р. н. (гармонь "хромка")
    Валентин Михайлович Давиденко, 1950 р. н. (барабан)
EAC log
Exact Audio Copy V1.0 beta 3 from 29. August 2011

Отчёт EAC об извлечении, выполненном 9. февраля 2012, 13:22

Божичі / Українські танці. Частина 2

Дисковод: PHILIPS SPD2519T Adapter: 2 ID: 0

Режим чтения : Достоверность
Использование точного потока : Да
Отключение кэша аудио : Да
Использование указателей C2 : Нет

Коррекция смещения при чтении : 6
Способность читать области Lead-in и Lead-out : Нет
Заполнение пропущенных сэмплов тишиной : Да
Удаление блоков с тишиной в начале и конце : Нет
При вычислениях CRC использовались нулевые сэмплы : Да
Интерфейс : Встроенный Win32-интерфейс для Win NT/2000

Выходной формат : Пользовательский кодировщик
Выбранный битрейт : 1024 kBit/s
Качество : Высокий
Добавление ID3-тега : Нет
Утилита сжатия : D:\soft_2\EAC\Exact Audio Copy\Flac\flac.exe
Дополнительные параметры : -V -8 -T "Date=%year%" -T "Genre=%genre%" %source%

TOC извлечённого CD

Трек | Старт | Длительность | Начальный сектор | Конечный сектор
---------------------------------------------------------------------
1 | 0:00.00 | 4:24.35 | 0 | 19834
2 | 4:24.35 | 4:49.55 | 19835 | 41564
3 | 9:14.15 | 3:59.46 | 41565 | 59535
4 | 13:13.61 | 3:49.32 | 59536 | 76742
5 | 17:03.18 | 3:20.09 | 76743 | 91751
6 | 20:23.27 | 3:30.46 | 91752 | 107547
7 | 23:53.73 | 5:08.23 | 107548 | 130670
8 | 29:02.21 | 3:56.22 | 130671 | 148392
9 | 32:58.43 | 3:35.14 | 148393 | 164531
10 | 36:33.57 | 3:05.22 | 164532 | 178428
11 | 39:39.04 | 3:24.51 | 178429 | 193779
12 | 43:03.55 | 3:44.58 | 193780 | 210637
13 | 46:48.38 | 5:48.03 | 210638 | 236740
14 | 55:08.41 | 7:56.33 | 248141 | 283873

Характеристики диапазона извлечения и сообщения об ошибках

Выбранный диапазон

Имя файла M:\Роздачі\Божичі\Божичі - дискографія [flac]\2011 - Українські танці. Частина 2\Божичі - Українські танці. Частина 2.wav

Пиковый уровень 100.0 %
Скорость извлечения 7.1 X
Качество диапазона 100.0 %
CRC теста 7B9EEA7F
CRC копии 7B9EEA7F
Копирование... OK

Ошибок не произошло

AccurateRip: сводка

Трек 1 отсутствует в базе данных
Трек 2 отсутствует в базе данных
Трек 3 отсутствует в базе данных
Трек 4 отсутствует в базе данных
Трек 5 отсутствует в базе данных
Трек 6 отсутствует в базе данных
Трек 7 отсутствует в базе данных
Трек 8 отсутствует в базе данных
Трек 9 отсутствует в базе данных
Трек 10 отсутствует в базе данных
Трек 11 отсутствует в базе данных
Трек 12 отсутствует в базе данных
Трек 13 отсутствует в базе данных

Ни одного трека нет в базе AccurateRip

Конец отчёта

==== Контрольная сумма отчёта 987D2FC4CC6D6D0AABDFF61BEDB469E69AC97B4F7B7614DB56566AE7C69CFB96 ====
Спектр
Тривалість: 05:18:47
Мова: українська або відсутня
Аудіо-кодек: FLAC
Бітрейт: 613-993 кб/с
Джерело: власні ріпи власних CD
Додаткова інформація
В оформленні релізу використано фото з офіційного сайту гурту "Божичі".



Якщо Ви справді бажаєте підтримати українське - після прослуховування, якщо музика вам сподобалась, придбайте ліцензійний диск. Підтримаймо вітчизняних виконавців!


Золотий реліз (завантажене не впливає на рейтинг)
 Трекер:    Зареєстрований   

Завантажити / скачати українську музику



відео для новачків



 Зареєстрований:   2012-02-16 19:29
 Розмір:   2.03 GB 
 Оцінка музики:   10/10 (Голосів: 16)
   
ssTAss 
Модератор музики


З нами з: 05.07.08
Востаннє: 07.12.16
Повідомлень: 10947

2012-02-16 19:39  
неймовірна роздача
де б то 2 гіга найти, га? Rolleyes (2)

додайте посилання на реліз в мр3, а там - на цей

gosha.samovar 
VIP


З нами з: 08.09.10
Востаннє: 06.12.16
Повідомлень: 400

2012-02-16 19:49  
Цитата:
додайте посилання на реліз в мр3, а там - на цей

Не шарю допутя, як їх додавати. Покажіть, будь ласка.

Форкуш 
VIP


З нами з: 03.02.10
Востаннє: 07.12.16
Повідомлень: 1538

2012-02-18 09:11  
Це варто знати, про них і їхню співпрацю...
http://tyzhden.ua/Columns/50/41999
Реліз дуже файний. Дякую!

alexlekh 
Новенький


З нами з: 25.03.12
Востаннє: 08.02.15
Повідомлень: 5

2012-03-25 22:44  
то супер
Ваш часовий пояс: GMT + 2 Години

Нова тема   Відповісти