Завантажити та скачати торренти українською


Скелети / Skeletons (2010) AVC

Нові коментарі

Нова тема   Відповісти
Автор Повідомлення
wrongman 
Свій


З нами з: 11.11.08
Востаннє: 05.12.16
Повідомлень: 137

2012-02-16 13:35  
Скелети / Skeletons (2010) AVC

Скелети / Skeletons (2010) AVC


Жанр: артхаус, комедія, фантастика
Країна: Великобританія



Режисер: Нік Уітфілд
Актори: Уїлл Адамсдейл, Ендрю Баклі, Пол Деллісон, Ед Гуга, Джейсон Айзекс, Кейт Ланкастер, Таппенс Мідлтон, Паприка Стеен, Джозеф Уітфілд

Сюжет:
Одна велика компанія розробила технологію, завдяки якій можна проникати у свідомість людини і вносити корективи, або ж витягувати з глибин пам'яті потрібні події. Девіс і Беннет працюють на корпорацію, надаючи різного роду послуги, пов'язані з свідомістю клієнтів. Велика трудність полягає в тому, що дуже складно утриматися від спокуси помандрувати за спогадами в своє задоволення або зробити навіювання на свій вибір. З черговою клієнткою Джейн герої знову відступають від професійної етики, не передбачаючи куди це їх заведе.


Тривалість: 01:34:00
Якість:
Відео:
кодек:
розмір кадру: 720 х 304
бітрейт: 2200 кб/с

Аудіо:
мова: українська
переклад: багатоголосий закадровий
кодек: 2.0
бітрейт: 192 кб/с

Детальні специфікації файлу

General
Format : MPEG-4
Format profile : Base Media / Version 2
Codec ID : mp42
File size : 1.57 GiB
Duration : 1h 34mn
Overall bit rate : 2 397 Kbps
Encoded date : UTC 2012-01-19 19:57:41
Tagged date : UTC 2012-01-19 20:52:45
Writing application : HandBrake rev0 2011122699
Video #1
ID : 1
Format : AVC
Format/Info : Advanced Video Codec
Format profile : [email protected]
Format settings, CABAC : Yes
Format settings, ReFrames : 3 frames
Codec ID : avc1
Codec ID/Info : Advanced Video Coding
Duration : 1h 34mn
Bit rate mode : Variable
Bit rate : 2 200 Kbps
Nominal bit rate : 3 000 Kbps
Width : 720 pixels
Height : 304 pixels
Display aspect ratio : 2.35:1
Frame rate mode : Constant
Frame rate : 25.000 fps
Color space : YUV
Chroma subsampling : 4:2:0
Bit depth : 8 bits
Scan type : Progressive
Bits/(Pixel*Frame) : 0.402
Stream size : 1.44 GiB (92%)
Writing library : core 118
Encoding settings : cabac=1 / ref=3 / deblock=1:0:0 / analyse=0x3:0x133 / me=umh / subme=7 / psy=1 / psy_rd=1.00:0.00 / mixed_ref=1 / me_range=32 / chroma_me=1 / trellis=2 / 8x8dct=1 / cqm=0 / deadzone=21,11 / fast_pskip=1 / chroma_qp_offset=-2 / threads=12 / sliced_threads=0 / nr=0 / decimate=1 / interlaced=0 / bluray_compat=0 / constrained_intra=0 / bframes=3 / b_pyramid=1 / b_adapt=2 / b_bias=0 / direct=1 / weightb=1 / open_gop=0 / weightp=2 / keyint=250 / keyint_min=25 / scenecut=40 / intra_refresh=0 / rc_lookahead=50 / rc=abr / mbtree=1 / bitrate=3000 / ratetol=1.0 / qcomp=0.20 / qpmin=10 / qpmax=51 / qpstep=4 / vbv_maxrate=3500 / vbv_bufsize=3500 / nal_hrd=none / ip_ratio=1.40 / aq=1:1.00
Encoded date : UTC 2012-01-19 19:57:41
Tagged date : UTC 2012-01-19 20:52:45
Color primaries : BT.601-6 525, BT.1358 525, BT.1700 NTSC, SMPTE 170M
Transfer characteristics : BT.709-5, BT.1361
Matrix coefficients : BT.601-6 525, BT.1358 525, BT.1700 NTSC, SMPTE 170M
Audio #2
ID : 2
Format :
Format/Info : Advanced Audio Codec
Format profile : LC
Codec ID : 40
Duration : 1h 33mn
Bit rate mode : Variable
Bit rate : 192 Kbps
Maximum bit rate : 363 Kbps
Channel(s) : 2 channels
Channel positions : Front: L R
Sampling rate : 44.1 KHz
Compression mode : Lossy
Stream size : 129 MiB (8%)
Encoded date : UTC 2012-01-19 19:57:41
Tagged date : UTC 2012-01-19 20:52:44
Скріншоти








Джерело:
Особиста оцінка: 0 - не дивився


 Трекер:    Зареєстрований   

Завантажити / скачати фільм українською



відео для новачків



 Зареєстрований:   2012-02-16 13:35
 Розмір:   1.57 GB 
 Оцінка фільму:   8.1/10 (Голосів: 16)
   
Leshchyshyn 
VIP


З нами з: 20.07.09
Востаннє: 02.12.16
Повідомлень: 470

2012-02-17 00:52  
народ, які враження від фільму?
danilogal1 
Новенький


З нами з: 20.03.11
Востаннє: 04.12.16
Повідомлень: 19

2012-02-18 23:44  
Фільм набагато глибший, ніж можна його описати. Відірватись не можливо. Ні на що не схожий, важко провести паралелі. Ще не раз переглядатиму!
Leshchyshyn 
VIP


З нами з: 20.07.09
Востаннє: 02.12.16
Повідомлень: 470

2012-02-19 14:29  
danilogal1 написано:
Фільм набагато глибший, ніж можна його описати. Відірватись не можливо. Ні на що не схожий, важко провести паралелі. Ще не раз переглядатиму!

ого)) якщо тебе настільки зачепив фільм то й теж перегляну) І дякую за відповідь!

akon111 
Відео Гуртом - запис з ТБ
Відео Гуртом - запис з ТБ


З нами з: 28.08.09
Востаннє: 05.12.16
Повідомлень: 1205

2012-02-19 14:39  
джерело озвучення є?
MAKAPOHHIK 
Відео Гуртом - фільмокрай
Відео Гуртом - фільмокрай


З нами з: 04.01.09
Востаннє: 06.12.16
Повідомлень: 914

2012-02-20 09:11  
akon111 написано:
джерело озвучення є?

Я його писав з "Першого Національного".
Мабуть і автор звідти Wink (1)

akon111 
Відео Гуртом - запис з ТБ
Відео Гуртом - запис з ТБ


З нами з: 28.08.09
Востаннє: 05.12.16
Повідомлень: 1205

2012-02-20 19:54  
о_О це добре...
Leshchyshyn 
VIP


З нами з: 20.07.09
Востаннє: 02.12.16
Повідомлень: 470

2012-02-22 18:29  
Спочатку, коли починаєш дивитися фільм то важко зрозуміти його суть, але згодом це просто щось, дуже глибокий фільм і заставляє багато над чим замислитись. Рекомендую й іншим переглянути, фільм дійсно вартий того!
imonko 
Відео Гуртом - фільмокрай
Відео Гуртом - фільмокрай


З нами з: 20.07.08
Востаннє: 31.10.16
Повідомлень: 7309

2012-05-07 13:29  
фільм справді неординарний і своєрідний, але не сподобалось, ще й озвучка так собі.
waloha 
VIP


З нами з: 29.12.09
Востаннє: 05.12.16
Повідомлень: 323

2012-05-13 19:11  
Фільм на любителя, спочатку нудно, потім появляється інтрига, яка тримає до кінця фільму і полегшення від фіналу. Гарний фільм, но мало, хочеться ще Happy
harm633 
Новенький


З нами з: 13.02.13
Востаннє: 29.10.16
Повідомлень: 1

2013-09-23 22:09  
Добрий фільм. Дуже сподобався. Рекомендую.
don pedro 
Попереджень: 1
Попереджень: 1 


З нами з: 29.06.11
Востаннє: 06.12.16
Повідомлень: 8751

2013-11-26 00:36  
Буквально вчора бачив цей фільм з українським озвученням на дівіді у магазині.
Ваш часовий пояс: GMT + 2 Години

Нова тема   Відповісти