Завантажити та скачати торренти українською


Опустити перископ / Підняти перископ / Down Periscope (1996) 1080i 2xUkr/Eng | sub Ukr/Eng

Нові коментарі

Нова тема   Відповісти
Автор Повідомлення
urij546724 
Відео Гуртом - фільмокрай
Відео Гуртом - фільмокрай


З нами з: 16.03.10
Востаннє: 10.12.16
Повідомлень: 5222

2012-02-15 23:35  
Підняти перископ / Опустити перископ / Down Periscope (1996) 1080i 2xUkr/Eng | sub Ukr/Eng


Слогани: «A rusty sub. A rebel commander. A renegade crew. When destiny called, they should have hung up.»
«Іржава заміна. Бунтівний командир. Зрадницька команда. Коли доля дзвонила, вони повинні не відповідати.»


Жанр: комедія
Країна: США ()



Кіностудія / кінокомпанія: Twentieth Century Fox Film Corporation
Режисер: Девід С. Ворд (David S. Ward)
Актори: Келсі Греммер (Kelsey Grammer), Лорен Холлі (Lauren Holly), Роб Шнайдер (Rob Schneider), Гаррі Дін Стентон (Harry Dean Stanton), Брюс Дерн (Bruce Dern), Вільям Х. Мейсі (William H. Macy), Кен Хадсон Кемпбелл (Ken Hudson Campbell)
Усі актори та їх фото:
Келсі Греммер (Kelsey Grammer), Лорен Холлі (Lauren Holly), Роб Шнайдер (Rob Schneider), Гаррі Дін Стентон (Harry Dean Stanton), Брюс Дерн (Bruce Dern), Вільям Х. Мейсі (William H. Macy), Кен Хадсон Кемпбелл (Ken Hudson Campbell), Тобі Хасс (Toby Huss), Дуейн Мартін (Duane Martin), Джонатан Пеннер (Jonathan Penner), Бредфорд Татум (Bradford Tatum), Харланд Вільямс (Harland Williams), Ріп Торн (Rip Torn), Джеймс Мартін мол. (James Martin Jr.), Джордан Мардер (Jordan Marder), Метт Лендерс (Matt Landers), Джозеф Летімор (Joseph Latimore), Петтон Освальт (Patton Oswalt), Джо Сото (Joe Soto), Пьерріно Маскаріно (Pierrino Mascarino), Денніс Фімпл (Dennis Fimple), Енсел Кук (Ancel Cook), Джеймс Харпер (James Harper), Руді Хорніш (Rudy Hornish), Томмі Террелл (Tommy Terrell), Елліот Істон (Elliot Easton), Майкл Коннорс (Michael Connors), Пол Траншіс (Paul Tranghese), Мітч Дентон (Mitch Danton), Джексон Сліт (Jackson Sleet), Енні Талбот (Annie Talbot), Юджин Деніел (Eugene Daniel), Боб Діні (Bob Dini), Ендрю Крістіан Інгліш (Andrew Christian English), Стів Гірало (Steve Giralo), Роберт Ґрочю (Robert Grochau), Джемі Джеймс (Jamie James), Джозеф Ківкалая (Joseph Keawkalaya), Тодд Одом (Todd Odom), Феліпе Роуз (Felipe Rose), Гебріелль Вагнер (Gabrielle Wagner)




Сюжет:
Замість довгоочікуваного атомного підводного човна капітан Том Додж одержує в своє розпорядження допотопну дизельну руїну. Судячи по зовнішньому вигляду, єдине, на що вона здатна - це останнє і дуже швидке занурення. Однак його це не бентежить, адже він найвеселіший і відчайдушний капітан флоту США, справжній морський вовк з татуюванням на інтимному місці.

Під стать йому підібрався й екіпаж. Більш ексцентричних і безглуздих матросів у природі не існує. А коли в якості експерименту на човен призначається жінка-офіцер, і без того неспокійні моряки просто сходять з розуму...


Збори в США: 25 785 603 долари
Збори у світі: 37 553 752 долари
Назва фільму у інших країнах
Touche pas à mon periscope
Канада (Французька назва) / Франція


Çilgin denizalti
Туреччина


Abajo el periscopio
Іспанія


Giù le mani dal mio periscopio
Італія


Locos a bordo
Аргентина (відео назва)


Mission - Rohr frei!
Німеччина


Não Mexas no Meu Periscópio
Португалія


Nagi peryskop
Польща


Periskope dol!
Словенія


Perskooppi pystyyn
Фінляндія


Por Água Abaixo
Бразилія


S.O.S. - Pentagono kalei 'Ypovryhio tis symforas'
Греція


Spustaj periskop!
Сербія


Tűz a víz alá!
Угорщина


Titta, vi dyker!
Швеція


Y a-t-il un commandant pour sauver la Navy?
Франція (Назва на DVD)


Убрать перископ
Росія
Чи знаєте ви, що...
1) «Стінгрей» у фільмі - насправді був знятий на музеї-кораблі «Пампаніто», підводний човен часів Другої світової війни класу «Балао».
2) АПЛ «Орландо» (регістр SSN-852) - вигаданий підводний човен класу "Лос-Анджелес». У ВМС США не існує підводного човна з такою назвою або регістром. Всі кадри були зняті на різних підводних човнах цього класу.
3) В деяких країнах, фільм названий «Видіння курця» (англ. Pipe Dreams). В Угорщині, він названий «Вогонь під водою» (англ. Fire Under Water). У Латинській Америці, він названий «Психи на борту» (англ. Crazys on Board).
4) Кадр спливання «Орландо» був узятий з фільму «Полювання за «Червоним жовтнем»».
Media Info
Format : BDAV
Format/Info : Blu-ray Video
File size : 6.38 GiB
Duration : 1h 28mn
Overall bit rate mode : Variable
Overall bit rate : 10.3 Mbps
Maximum Overall bit rate : 35.5 Mbps

Video
ID : 4113 (0x1011)
Menu ID : 1 (0x1)
Format : AVC
Format/Info : Advanced Video Codec
Format profile : [email protected]
Format settings, CABAC : Yes
Format settings, ReFrames : 4 frames
Codec ID : 27
Duration : 1h 28mn
Bit rate mode : Variable
Bit rate : 8 702 Kbps
Maximum bit rate : 40.0 Mbps
Width : 1 920 pixels
Height : 1 080 pixels
Display aspect ratio : 16:9
Frame rate : 25.000 fps
Color space : YUV
Chroma subsampling : 4:2:0
Bit depth : 8 bits
Scan type : MBAFF
Scan order : Top Field First
Bits/(Pixel*Frame) : 0.168
Stream size : 5.40 GiB (85%)
Color primaries : BT.709-5, BT.1361, IEC 61966-2-4, SMPTE RP177
Transfer characteristics : BT.709-5, BT.1361
Matrix coefficients : BT.709-5, BT.1361, IEC 61966-2-4 709, SMPTE RP177

Audio #1
ID : 4352 (0x1100)
Menu ID : 1 (0x1)
Format : AC-3
Format/Info : Audio Coding 3
Mode extension : CM (complete main)
Codec ID : 129
Duration : 1h 28mn
Bit rate mode : Constant
Bit rate : 384 Kbps
Channel(s) : 6 channels
Channel positions : Front: L C R, Side: L R, LFE
Sampling rate : 48.0 KHz
Bit depth : 16 bits
Compression mode : Lossy
Stream size : 244 MiB (4%)
Language : Ukrainian

Audio #2
ID : 4353 (0x1101)
Menu ID : 1 (0x1)
Format : AC-3
Format/Info : Audio Coding 3
Mode extension : CM (complete main)
Codec ID : 129
Duration : 1h 28mn
Bit rate mode : Constant
Bit rate : 384 Kbps
Channel(s) : 6 channels
Channel positions : Front: L C R, Side: L R, LFE
Sampling rate : 48.0 KHz
Bit depth : 16 bits
Compression mode : Lossy
Stream size : 244 MiB (4%)
Language : Ukrainian

Audio #3
ID : 4354 (0x1102)
Menu ID : 1 (0x1)
Format : AC-3
Format/Info : Audio Coding 3
Mode extension : CM (complete main)
Codec ID : 129
Duration : 1h 28mn
Bit rate mode : Constant
Bit rate : 384 Kbps
Channel(s) : 6 channels
Channel positions : Front: L C R, Side: L R, LFE
Sampling rate : 48.0 KHz
Bit depth : 16 bits
Compression mode : Lossy
Stream size : 244 MiB (4%)
Language : English

Text #1
ID : 4608 (0x1200)
Menu ID : 1 (0x1)
Format : PGS
Codec ID : 144
Duration : 1h 28mn
Delay relative to video : 8s 760ms
Language : Ukrainian

Text #2
ID : 4609 (0x1201)
Menu ID : 1 (0x1)
Format : PGS
Codec ID : 144
Language : English
Тривалість: 01:28:54
Якість: 1080i
Відео:
кодек: H264
розмір кадру: 1920 х 1080
бітрейт: ~ 8702 кб/с
частота кадрів: 25 к/с (fps)

Аудіо #1:
мова: українська
переклад: двоголосий закадровий
кодек: 5.1
бітрейт: 384 кб/с
озвучено:

Аудіо #2:
мова: українська
переклад: двоголосий закадровий
кодек: 5.1
бітрейт: 384 кб/с
запис звуку з каналу:

Аудіо #3:
мова: англійська
переклад: оригінал
кодек: 5.1
бітрейт: 384 кб/с

Субтитри #1:
мова: українська
тип: програмні (м'які)
формат: *.srt
джерело:

Субтитри #2:
мова: англійська
тип: програмні (м'які)
формат: *.srt

Скріншоти:



Трейлери:
Семпл
Джерело 1_________Джерело 2_________Джерело 3
У випадку, якщо з усіх джерел семпл видалять, прохання повідомити мені у ПРИВАТ


Подяка:

1. Пану восвобода, Пану yuraflash та Пану karvai0 за запис з ТБ.
2. Пану восвобода за українізацію постера.


Джерело: &

Особиста оцінка: Дивився дуже давно, тож важко сказати. Приблизно 8.

Реліз не зберігатиму, видалю після появи кількох сідів.


Срібний реліз (на рейтинг впливає 50% завантаженого)
 Трекер:    Зареєстрований   

Завантажити / скачати фільм українською



відео для новачків



 Зареєстрований:   2012-02-16 11:48
 Розмір:   6.38 GB 
 Оцінка фільму:   8.8/10 (Голосів: 23)
 Прохання залишати коментарі і не тікати з роздачі.
   
Віктор 
Відео Гуртом - субтитрування
Відео Гуртом - субтитрування


З нами з: 09.01.10
Востаннє: 11.12.16
Повідомлень: 8664

2012-02-16 13:42  
А що з субтитрами в мі відображаються як pgs.

Додано через 5 хвилин 2 секунди:

urij546724 написано:
m2ts

А зрозуміло.) Тре було переупакувати в мкв.

urij546724 
Відео Гуртом - фільмокрай
Відео Гуртом - фільмокрай


З нами з: 16.03.10
Востаннє: 10.12.16
Повідомлень: 5222

2012-02-16 13:59  
w2958l написано:
Тре було переупакувати в мкв.

Та не хотів міняти. Було в m2ts, так і лишив.

vadjarev 
Добродій


З нами з: 22.11.08
Востаннє: 10.12.16
Повідомлень: 2

2013-01-12 22:19  
Один із небагатьох американських фільмів який справді приємно подивитись. Дуже допомагає підняти настрій, так що, раджу усім як досить добрий антидепресант. Wide grin
or3xoz4vr 
Новенький


З нами з: 22.02.11
Востаннє: 04.12.16
Повідомлень: 1

2013-12-19 20:53  
Дякую, хлопці, ви просто супер!!!
Ваш часовий пояс: GMT + 2 Години

Нова тема   Відповісти