Завантажити та скачати торренти українською


Сутінки. Сага. Світанок - Частина 1 / The Twilight Saga: Breaking Dawn - Part 1 (2011) 720p-mini Ukr/Eng | Sub Ukr/Eng

Нові коментарі

Нова тема   Відповісти
Останній раз роздавалося belladonna (2016-12-10)
Автор Повідомлення
Anonymous 







2012-02-13 18:58  
Сутінки. Сага. Світанок - Частина 1 / The Twilight Saga: Breaking Dawn - Part 1 (2011) 720p-mini Ukr/Eng | Sub Ukr/Eng | Ліцензія

Сутінки. Сага. Світанок - Частина 1 / The Twilight Saga: Breaking Dawn - Part 1 (2011) 720p-mini Ukr/Eng | Sub Ukr/Eng


Жанр: пригодницький, драма, фентезі, романтичний
Країна: США



Кіностудія / кінокомпанія: Summit Entertainment
Режисер: Білл Кондон
Актори: Крістен Стюарт, Роберт Паттінсон, Тейлор Лотнер, Майкл Шин, Ешлі Грін, Келлан Латс, Біллі Берк, Джексон Ретбоун

Сюжет:
У четвертій частині Белла Свон постає перед непростим вибором - зберегти життя собі або своїй дитині (наполовину вампірові, наполовину людині). Вона вирішує залишити малюка, але Едвард та інші члени сім'ї Каллен категорично проти.

Допомоги Беллі чекати не від кого, але вона приходить несподівано, від того, від кого її зовсім не чекали. Удвох Белла і Розалі намагаються зберегти життя малюкові, навіть не здогадуючись, до яких страхітливих наслідків це призведе.


Тривалість: 01:57:08
Якість: від R.G. GoldenShara
Відео:
кодек:
розмір кадру: 1280x534
бітрейт: 2219 кб/с

Аудіо # 1:
мова: українська
переклад: професійний дубльований
кодек: 5.1
бітрейт: 448 кб/с

Аудіо # 2:
мова: англійська
переклад: оригінал
кодек: 5.1
бітрейт: 448 кб/с

Джерело озвучення:


Субтитри 1:
мова: українська
тип: програмні (м'які)
формат: *.srt

Субтитри 2:
мова: англійська
тип: програмні (м'які)
формат: *.srt

Подяка sstonecold1 за надану укр-у доріжку
MediaInfo

Format : Matroska
File size : 2.60 GiB
Duration : 1h 57mn
Overall bit rate : 3 178 Kbps
Movie name : Rip by Blo
Encoded date : UTC 2012-02-13 16:50:06
Writing application : mkvmerge v2.4.2 ('Oh My God') built on Jan 18 2009 17:30:28
Writing library : libebml v0.7.7 + libmatroska v0.8.1
Video #1
ID : 1
Format : AVC
Format/Info : Advanced Video Codec
Format profile : [email protected]
Format settings, CABAC : Yes
Format settings, ReFrames : 4 frames
Muxing mode : Container [email protected]
Codec ID : V_MPEG4/ISO/AVC
Duration : 1h 57mn
Bit rate : 2 219 Kbps
Nominal bit rate : 2 288 Kbps
Width : 1 280 pixels
Height : 534 pixels
Display aspect ratio : 2.40:1
Original display aspect ratio : 2.35:1
Frame rate : 23.976 fps
Resolution : 24 bits
Colorimetry : 4:2:0
Scan type : Progressive
Bits/(Pixel*Frame) : 0.135
Stream size : 1.81 GiB (70%)
Title : The Twilight Saga: Breaking Dawn - Part 1 (2011)
Writing library : core 120 r2164 da19765
Encoding settings : cabac=1 / ref=4 / deblock=1:0:0 / analyse=0x3:0x133 / me=hex / subme=7 / psy=1 / psy_rd=1.00:0.00 / mixed_ref=1 / me_range=16 / chroma_me=1 / trellis=1 / 8x8dct=1 / cqm=0 / deadzone=21,11 / fast_pskip=1 / chroma_qp_offset=-2 / threads=6 / sliced_threads=0 / nr=0 / decimate=1 / interlaced=0 / bluray_compat=0 / constrained_intra=0 / bframes=3 / b_pyramid=2 / b_adapt=2 / b_bias=0 / direct=1 / weightb=1 / open_gop=0 / weightp=2 / keyint=240 / keyint_min=23 / scenecut=40 / intra_refresh=0 / rc_lookahead=40 / rc=2pass / mbtree=1 / bitrate=2288 / ratetol=2.0 / qcomp=0.60 / qpmin=0 / qpmax=69 / qpstep=4 / cplxblur=20.0 / qblur=0.5 / ip_ratio=1.40 / aq=1:1.00
Language : English
Audio #2
ID : 2
Format : AC-3
Format/Info : Audio Coding 3
Codec ID : A_AC3
Duration : 1h 57mn
Bit rate mode : Constant
Bit rate : 448 Kbps
Channel(s) : 6 channels
Channel positions : Front: L C R, Surround: L R, LFE
Sampling rate : 48.0 KHz
Stream size : 375 MiB (14%)
Audio #3
ID : 3
Format : AC-3
Format/Info : Audio Coding 3
Codec ID : A_AC3
Duration : 1h 57mn
Bit rate mode : Constant
Bit rate : 448 Kbps
Channel(s) : 6 channels
Channel positions : Front: L C R, Surround: L R, LFE
Sampling rate : 48.0 KHz
Stream size : 375 MiB (14%)
Text #4
ID : 4
Format : UTF-8
Codec ID : S_TEXT/UTF8
Codec ID/Info : UTF-8 Plain Text
Text #5
ID : 5
Format : UTF-8
Codec ID : S_TEXT/UTF8
Codec ID/Info : UTF-8 Plain Text
Скріншоти





Особиста оцінка: не дивився


 Трекер:    Зареєстрований   

Завантажити / скачати фільм українською



відео для новачків



 Зареєстрований:   2012-02-13 18:58
 Розмір:   2.6 GB 
 Оцінка фільму:   8.4/10 (Голосів: 30)
   
bot 
робот


З нами з: 30.09.07
Востаннє: 26.05.05
Повідомлень: 16048

2012-02-13 18:59  
Тему перенесено з Озвучені українською до форуму Фільми в HD


Гість

Jaredinho 
Новенький


З нами з: 13.02.12
Востаннє: 03.12.16
Повідомлень: 5

2012-02-13 19:16  
якість?
Anonymous 







2012-02-13 19:33  
Jaredinho
хороша все написано, скріни є...

leroykendall 
Модератор HD


З нами з: 03.01.11
Востаннє: 20.11.16
Повідомлень: 749

2012-02-14 00:26  
Треба зазначити звідки ріп.
Anonymous 







2012-02-14 07:44  
leroykendall написано:
Треба зазначити звідки ріп.

зазначив

bot 
робот


З нами з: 30.09.07
Востаннє: 26.05.05
Повідомлень: 16048

2012-09-21 14:10  
Тему перенесено з Фільми в HD до форуму Неоформлене відео


urij546724

Romashka28 
Новенький


З нами з: 06.07.12
Востаннє: 05.12.16
Повідомлень: 2

2013-07-30 21:52  
Підкажіть, будь ласка, чого фільм не грузиться?
постійно пише "Finding peers"
буду вдячна за допомогу)

ratbol 
Модератор HD


З нами з: 03.02.09
Востаннє: 10.12.16
Повідомлень: 1088

2013-07-30 23:00  
Romashka28
Тому що вам не дозволяє цього робити ваш низький рейтинг.
Почитайте:
http://toloka.to/t35477

Romashka28 
Новенький


З нами з: 06.07.12
Востаннє: 05.12.16
Повідомлень: 2

2013-07-30 23:08  
ratbol

Величезне спасибі!)

Ваш часовий пояс: GMT + 2 Години

Нова тема   Відповісти