Завантажити та скачати торренти українською


Сутінки. Сага. Світанок - Частина 1 / The Twilight Saga: Breaking Dawn - Part 1 (2011) 1080p Ukr/Eng | Sub Ukr/Eng

Нові коментарі

Нова тема   Відповісти
Автор Повідомлення
ratbol 
Модератор HD


З нами з: 03.02.09
Востаннє: 01.12.16
Повідомлень: 1088

2012-02-13 16:16  
Сутінки. Сага. Світанок - Частина 1 / The Twilight Saga: Breaking Dawn - Part 1 (2011) 1080p Ukr/Eng | Sub Ukr/Eng

Сутінки. Сага. Світанок - Частина 1 / The Twilight Saga: Breaking Dawn - Part 1 (2011) 1080p Ukr/Eng | Sub Ukr/Eng


Жанр: фентезі, драма, романтичний, мелодрама
Країна: США



Кіностудія / кінокомпанія: Summit Entertainment
Режисер: Білл Кондон
Актори: Крістен Стюарт, Роберт Паттінсон, Тейлор Лотнер, Майкл Шин, Ешлі Грін, Келлан Латс, Біллі Берк та інші
Вікові обмеження: 16+

Сюжет:
У четвертій частині Белла Свон постає перед непростим вибором - зберегти життя собі або своїй дитині (наполовину вампірові, наполовину людині). Вона вирішує залишити малюка, але Едвард та інші члени сім'ї Каллен категорично проти.

Допомоги Беллі чекати не від кого, але вона приходить несподівано, від того, від кого її зовсім не чекали. Удвох Белла і Розалі намагаються зберегти життя малюкові, навіть не здогадуючись, до яких страхітливих наслідків це призведе.


Тривалість: 01:57:08
Якість: 1080p
Відео:
кодек:
розмір кадру: 1920 х 800
бітрейт: 12 Мб/с

Аудіо # 1:
мова: українська
переклад: професійний дубльований | DVD
кодек: 5.1
бітрейт: 448 кб/с

Аудіо # 2:
мова: англійська
переклад: оригінал
кодек: 5.1
бітрейт: 1510 кб/с

Аудіо # 3:
мова: англійська
переклад: коментарі
кодек: 2.0
бітрейт: 192 кб/с

Субтитри:
мова: українська, англійська, англійська (надписи та інше)
тип: програмні (м'які)
формат: *.srt

JОригінальні розділи:
Збережено

MediaInfo
General
Unique ID : 196664075658284290920062370823828800584 (0x93F41F8BF8D294418DE597B27B4A0448)
Complete name : E:\Сутінки. Сага. Світанок - Частина 1 [The Twilight Saga. Breaking Dawn - Part 1] (2011) 1080p [Hurtom].mkv
Format : Matroska
Format version : Version 2
File size : 11.4 GiB
Duration : 1h 57mn
Overall bit rate : 14.0 Mbps
Encoded date : UTC 2012-02-11 20:54:06
Writing application : mkvmerge v3.2.0 ('Beginnings') built on Feb 12 2010 16:46:17
Writing library : libebml v0.7.9 + libmatroska v0.8.1

Video
ID : 1
Format : AVC
Format/Info : Advanced Video Codec
Format profile : [email protected]
Format settings, CABAC : Yes
Format settings, ReFrames : 5 frames
Codec ID : V_MPEG4/ISO/AVC
Duration : 1h 57mn
Bit rate : 12.0 Mbps
Width : 1 920 pixels
Height : 800 pixels
Display aspect ratio : 2.40:1
Frame rate : 23.976 fps
Color space : YUV
Chroma subsampling : 4:2:0
Bit depth : 8 bits
Scan type : Progressive
Bits/(Pixel*Frame) : 0.326
Stream size : 9.59 GiB (84%)
Writing library : core 120 r2120 0c7dab9
Encoding settings : cabac=1 / ref=5 / deblock=1:-3:-3 / analyse=0x3:0x133 / me=umh / subme=10 / psy=1 / psy_rd=0.95:0.05 / mixed_ref=1 / me_range=24 / chroma_me=1 / trellis=2 / 8x8dct=1 / cqm=0 / deadzone=21,11 / fast_pskip=0 / chroma_qp_offset=-3 / threads=12 / sliced_threads=0 / nr=0 / decimate=0 / interlaced=0 / bluray_compat=0 / constrained_intra=0 / bframes=7 / b_pyramid=2 / b_adapt=2 / b_bias=0 / direct=3 / weightb=1 / open_gop=0 / weightp=2 / keyint=250 / keyint_min=23 / scenecut=40 / intra_refresh=0 / rc=2pass / mbtree=0 / bitrate=12000 / ratetol=1.0 / qcomp=0.60 / qpmin=0 / qpmax=69 / qpstep=4 / cplxblur=20.0 / qblur=0.5 / ip_ratio=1.40 / pb_ratio=1.30 / aq=1:0.95
Language : English
Default : No
Forced : No

Audio #1
ID : 2
Format : AC-3
Format/Info : Audio Coding 3
Mode extension : CM (complete main)
Codec ID : A_AC3
Duration : 1h 57mn
Bit rate mode : Constant
Bit rate : 448 Kbps
Channel(s) : 6 channels
Channel positions : Front: L C R, Side: L R, LFE
Sampling rate : 48.0 KHz
Bit depth : 16 bits
Compression mode : Lossy
Stream size : 375 MiB (3%)
Title : 5.1 [448 Kbps] - професійний дубльований, DVD
Language : Ukrainian
Default : Yes
Forced : No

Audio #2
ID : 3
Format :
Format/Info : Digital Theater Systems
Format profile : ES
Codec ID : A_DTS
Duration : 1h 57mn
Bit rate mode : Constant
Bit rate : 1 510 Kbps
Channel(s) : 6 channels
Channel positions : Front: L C R, Side: L R, LFE
Sampling rate : 48.0 KHz
Bit depth : 24 bits
Compression mode : Lossy
Delay relative to video : 11ms
Stream size : 1.24 GiB (11%)
Title : 5.1 [1510 Kbps]
Language : English
Default : No
Forced : No

Audio #3
ID : 4
Format : AC-3
Format/Info : Audio Coding 3
Mode extension : CM (complete main)
Codec ID : A_AC3
Duration : 1h 57mn
Bit rate mode : Constant
Bit rate : 192 Kbps
Channel(s) : 2 channels
Channel positions : Front: L R
Sampling rate : 48.0 KHz
Bit depth : 16 bits
Compression mode : Lossy
Stream size : 161 MiB (1%)
Title : 2.0 [192 Kbps] - коментарі
Language : English
Default : No
Forced : No

Text #1
ID : 4
Format : UTF-8
Codec ID : S_TEXT/UTF8
Codec ID/Info : UTF-8 Plain Text
Language : Ukrainian
Default : No
Forced : No

Text #2
ID : 5
Format : UTF-8
Codec ID : S_TEXT/UTF8
Codec ID/Info : UTF-8 Plain Text
Language : English
Default : No
Forced : No

Text #3
ID : 6
Format : UTF-8
Codec ID : S_TEXT/UTF8
Codec ID/Info : UTF-8 Plain Text
Title : надписи та інше
Language : English
Default : No
Forced : No

Menu
00:00:00.000 : en:00:00:00.000
00:08:10.115 : en:00:08:10.115
00:11:23.683 : en:00:11:23.683
00:16:30.740 : en:00:16:30.740
00:21:03.762 : en:00:21:03.762
00:29:28.266 : en:00:29:28.266
00:34:43.290 : en:00:34:43.290
00:41:15.556 : en:00:41:15.556
00:47:42.485 : en:00:47:42.485
00:55:57.813 : en:00:55:57.813
01:04:21.441 : en:01:04:21.441
01:09:47.058 : en:01:09:47.058
01:13:47.381 : en:01:13:47.381
01:20:50.804 : en:01:20:50.804
01:28:22.964 : en:01:28:22.964
01:36:25.488 : en:01:36:25.488
01:41:44.098 : en:01:41:44.098
01:46:51.697 : en:01:46:51.697
Скріншоти











Джерело:


 Трекер:    Зареєстрований   

Завантажити / скачати фільм українською



відео для новачків



 Зареєстрований:   2012-02-13 16:17
 Розмір:   11.58 GB 
 Оцінка фільму:   7.7/10 (Голосів: 6)
   
bot 
робот


З нами з: 30.09.07
Востаннє: 26.05.05
Повідомлень: 15969

2012-02-13 16:27  
Тему перенесено з Озвучені українською до форуму Фільми в HD


Andick

Cawok78 
Новенький


З нами з: 28.02.11
Востаннє: 02.12.16
Повідомлень: 3

2012-11-11 19:41  
Став би хтось на роздачу, а то з швидкістю 50 кілобайт це катастрофа Sad (1)
Ваш часовий пояс: GMT + 2 Години

Нова тема   Відповісти