Завантажити та скачати торренти українською


Серце ангела / Angel Heart (1987) 720p Ukr/Eng | Sub Ukr/Eng

Нові коментарі

Нова тема   Відповісти
Автор Повідомлення
Віктор 
Відео Гуртом - субтитрування
Відео Гуртом - субтитрування


З нами з: 09.01.10
Востаннє: 11.12.16
Повідомлень: 8664

2012-02-13 14:36  
Серце ангела / Angel Heart (1987) 720p Ukr/Eng | Sub Ukr/Eng




«Nothing can prepare you for the ending of Angel Heart.»


Жанр: містика, трилер
Країна: США, Канада, Велика Британія



Кіностудія / кінокомпанія: Carolco International N.V., Winkast Film Productions, Union
Режисер: Алан Паркер (Alan Parker)
Композитор: Тревор Джонс (Trevor Jones)
Актори: Міккі Рурк (Mickey Rourke), Роберт Де Ніро (Robert De Niro), Ліза Бонет (Lisa Bonet), Шарлотта Ремплінґ (Charlotte Rampling), Ден Флорек (Dann Florek) та інші.

Сюжет:
1955, Нью-Йорк, до приватного детектива Гаррі Ейнджел звертається якийсь Луїс Сайфер з проханням розшукати талановитого музиканта Джоні Фейворіта. У 1943 році містер Сайфер уклав з Джонні один контракт, але Фейворіт, повернувшись з війни, потрапив до психіатричної лікарні, звідки згодом зник ... Сліди його загубилися ... Гаррі починає розслідування, однак, чим далі просувається він у своїх пошуках, тим більше загадок зустрічається на його шляху. А дороги назад немає: кожен, у кого він намагався отримати хоч якісь відомості про зниклого Джонні, після розмови з Ейнджелом гинуть...
Номінації, цікаві факти

Сатурн, 1988 рік
Номінації (3):
Найкращий актор другого плану (Роберт Де Ніро)
Найкраща актриса другого плану (Ліза Бонет)
Найкращий сценарій

Цікаві факти про фільм

• Спочатку Роберт де Ніро відмовився від ролі Луіса Сайфера. Пізніше він зміняв своє рішення.
• Від ролі Луіса Сайфера відмовилися Марлон Брандо, Джек Ніколсон і Аль Пачіно.
• Ліза Бонет отримала спеціальний приз за найкращу жіночу роль на фестивалі фантастичних фільмів.
• Роман "Ангел, який занепав", покладений в основу сценарію стрічки, був написаний письменником-відлюдником Вільямом Гертсберґом в 1978 році.
Картина має деякі відмінності від книги - герой картини, Гаррі Ейнджел, під час розслідування їде в Луїзіану, в той час, як в романі уся дія відбувається в Нью-Йорку.
• Бюджет - $17,000,000.
MediaInfo

Код:
General
Unique ID                        : 205050950178410419034986200797908987761 (0x9A436062C965E3CAB609C918D1BA6F71)
Complete name                    : D:\HURTOM\Angel Heart (1987) [Ukr, Eng] 720p [Hurtom].mkv
Format                           : Matroska
Format version                   : Version 2
File size                        : 6.92 GiB
Duration                         : 1h 53mn
Overall bit rate                 : 8 749 Kbps
Movie name                       : Angel Heart (1987) [Ukr, Eng] 720p [Hurtom]
Encoded date                     : UTC 2012-02-13 12:16:47
Writing application              : mkvmerge v5.0.1 ('Es ist Sommer') built on Oct  9 2011 11:55:43
Writing library                  : libebml v1.2.2 + libmatroska v1.3.0

Video
ID                               : 1
Format                           : AVC
Format/Info                      : Advanced Video Codec
Format profile                   : [email protected]
Format settings, CABAC           : Yes
Format settings, ReFrames        : 7 frames
Codec ID                         : V_MPEG4/ISO/AVC
Duration                         : 1h 53mn
Bit rate                         : 7 531 Kbps
Width                            : 1 280 pixels
Height                           : 692 pixels
Display aspect ratio             : 1.850
Frame rate                       : 23.976 fps
Color space                      : YUV
Chroma subsampling               : 4:2:0
Bit depth                        : 8 bits
Scan type                        : Progressive
Bits/(Pixel*Frame)               : 0.355
Stream size                      : 5.83 GiB (84%)
Title                            : Angel Heart (1987) [Ukr, Eng] 720p [Hurtom]
Writing library                  : core 79 r1354M 636f98f
Encoding settings                : cabac=1 / ref=8 / deblock=1:-3:-3 / analyse=0x3:0x133 / me=esa / subme=10 / psy=1 / psy_rd=1.0:0.4 / mixed_ref=1 / me_range=24 / chroma_me=1 / trellis=2 / 8x8dct=1 / cqm=0 / deadzone=21,11 / chroma_qp_offset=-4 / threads=6 / nr=0 / decimate=0 / mbaff=0 / constrained_intra=0 / bframes=6 / b_pyramid=1 / b_adapt=2 / b_bias=0 / direct=3 / wpredb=1 / wpredp=2 / keyint=250 / keyint_min=25 / scenecut=40 / rc=2pass / mbtree=0 / bitrate=7531 / ratetol=1.0 / qcomp=0.60 / qpmin=10 / qpmax=30 / qpstep=4 / cplxblur=20.0 / qblur=0.5 / ip_ratio=1.40 / pb_ratio=1.30 / aq=1:0.70
Language                         : English
Default                          : Yes
Forced                           : No

Audio #1
ID                               : 2
Format                           : AC-3
Format/Info                      : Audio Coding 3
Mode extension                   : CM (complete main)
Codec ID                         : A_AC3
Duration                         : 1h 53mn
Bit rate mode                    : Constant
Bit rate                         : 448 Kbps
Channel(s)                       : 6 channels
Channel positions                : Front: L C R, Side: L R, LFE
Sampling rate                    : 48.0 KHz
Bit depth                        : 16 bits
Compression mode                 : Lossy
Stream size                      : 363 MiB (5%)
Title                            : 5.1 @ 448 kbps - багатоголосий закадровий | запис звуку з телеканалу КІНО
Language                         : Ukrainian
Default                          : Yes
Forced                           : No

Audio #2
ID                               : 3
Format                           :
Format/Info                      : Digital Theater Systems
Codec ID                         : A_DTS
Duration                         : 1h 53mn
Bit rate mode                    : Constant
Bit rate                         : 755 Kbps
Channel(s)                       : 6 channels
Channel positions                : Front: L C R, Side: L R, LFE
Sampling rate                    : 48.0 KHz
Bit depth                        : 24 bits
Compression mode                 : Lossy
Stream size                      : 611 MiB (9%)
Title                            : 5.1 @ 768 kbps
Language                         : English
Default                          : No
Forced                           : No

Text #1
ID                               : 4
Format                           : UTF-8
Codec ID                         : S_TEXT/UTF8
Codec ID/Info                    : UTF-8 Plain Text
Language                         : Ukrainian
Default                          : No
Forced                           : No

Text #2
ID                               : 5
Format                           : UTF-8
Codec ID                         : S_TEXT/UTF8
Codec ID/Info                    : UTF-8 Plain Text
Language                         : English
Default                          : No
Forced                           : No
Всі наявні релізи

Завантажити:
720p Ukr/Eng | Sub Ukr/Eng (6.92 GB) - багатоголосий закадровий запис звуку з телеканалу КІНО

Ролі озвучили: Роберт Де Ніро - Олег Стальчук
Тривалість: 01:53:11
Якість: 720p (ESiR)
Відео:
кодек:
розмір кадру: 1280х692
бітрейт: 7531 кб/с

Аудіо # 1:
мова: українська
переклад: багатоголосий закадровий запис звуку з телеканалу КІНО
кодек: 5.1
бітрейт: 448 кб/с

Аудіо # 2:
мова: англійська
переклад: оригінал
кодек: 5.1
бітрейт: 768 кб/с

Субтитри # 1 :
мова: українська
тип: програмні (м'які)
формат: *.srt
переклад субтитрів: Lan, переважно з оригіналу

Субтитри # 2:
мова: англійська
тип: програмні (м'які)
формат: *.srt

Скріншоти:





За якісну синхронізацію української доріжки і переклад укр. субтитрів подяка Lan-у,
за запис звуку з тб подяка weber і robotron005


Джерело:
Особиста оцінка: 8


Срібний реліз (на рейтинг впливає 50% завантаженого)
 Трекер:    Зареєстрований   

Завантажити / скачати фільм українською



відео для новачків



 Зареєстрований:   2012-02-13 16:12
 Розмір:   6.92 GB 
 Оцінка фільму:   7.4/10 (Голосів: 14)
   
Інші релізи
waldi-hurtom 
VIP


З нами з: 07.10.12
Востаннє: 10.12.16
Повідомлень: 613

2013-01-12 23:35  
Гидотний фільм, на жаль, розумієш це після закінчення, бо не можна відірватись. Яка гидота!
don pedro 
Попереджень: 1
Попереджень: 1 


З нами з: 29.06.11
Востаннє: 11.12.16
Повідомлень: 8780

2013-01-13 01:02  
waldi-hurtom
Але ж відірватись не можна. В тому то й майстерність творців фільму, їх клас, як кінематографістів.

Ваш часовий пояс: GMT + 2 Години

Нова тема   Відповісти