Завантажити та скачати торренти українською


VA - Фестиваль "Рок-Екзистенція’2005" (2CD) (2006) [FLAC] | Rock

Нові коментарі

Нова тема   Відповісти
Останній раз роздавалося natashelka (2016-12-03)
Автор Повідомлення
jinotot 
Почесний оцифрувальник літератури


З нами з: 28.01.09
Востаннє: 16.11.16
Повідомлень: 3235

2012-02-12 18:21  
VA - Фестиваль "Рок-Екзистенція’2005" (2CD) (2006) [FLAC] | Rock

VA - Фестиваль "Рок-Екзистенція’2005" (2CD) (2006) [FLAC] | Rock


Стиль: Folk Rock, Pop Rock, Hard Rock, Punk, Free Improvisation
Країна, місто: Україна, Київ
Видавець: Арт Велес, Арт Екзистенція, Comp Music Ltd
Виконавці: "Н. Три", "Помаранч", "Плач Єремії", "Веранда", "Ті, що падають вгору", "Оркест Янки Козир", "Весняний галас", Леся Герасимчук та "Королівські зайці", "Очеретяний кіт", "Бажана", "Естетік Едюкейшн", "Празник святого Йоргена", "Кому Вниз", "Крихітка Цахес", "Щастя", "Зе Моглас", "Назад шляху немає" та Олег Скрипка, "Перкалаба", "Дай мамі поспати", "Борщ", "Дивні", "Гайдамаки", "Гуцул Каліпсо", "Мандри", "Інкунабула", "Мертвий півень", "Фактично самі" та Сашко Положинський, "Армада", "ВВ", "Формат це" ("Злобні нігери"), "Мотор'ролла"

Пісні:
CD I

01. Н. Три – А ти відлітай 03:49
02. Помаранч – Іспанка 03:29
03. Плач Єремії – Дерев'яна зозуля 02:09
04. Веранда – Марічка 03:49
05. Ті, що падають вгору – Ріка 03:36
06. Оркест Янки Козир – Трави нема 03:37
07. Весняний галас – Я піду сьогодні в ніч 05:06
08. Леся Герасимчук та Королівські зайці – Серце-Місяць 04:23
09. Очеретяний кіт – Волики 04:20
10. Бажана – З тобою 3:10
11. Естетік Едюкейшн – Mashine 03:24
12. Празник святого Йоргена – Піду за обрій 04:44
13. Кому Вниз – Білі демони 05:39
14. Крихітка Цахес – Па-па 03:57
15. Щастя – Вальс 01:50
16. Зе Моглас – Трек №3 03:21

Тривалість: 01:00:29
Бітрейт: 914 кб/с
Лоґ-файл
Exact Audio Copy V1.0 beta 3 from 29. August 2011

EAC extraction logfile from 12. February 2012, 0:17

Various Artists / Фестиваль Рок-Екзистенція 2005 [CD I]

Used drive : ASUS DRW-20B1S Adapter: 0 ID: 0

Read mode : Secure
Utilize accurate stream : Yes
Defeat audio cache : Yes
Make use of C2 pointers : No

Read offset correction : 6
Overread into Lead-In and Lead-Out : No
Fill up missing offset samples with silence : Yes
Delete leading and trailing silent blocks : No
Null samples used in CRC calculations : Yes
Used interface : Native Win32 interface for Win NT & 2000

Used output format : Internal WAV Routines
Sample format : 44.100 Hz; 16 Bit; Stereo

TOC of the extracted CD

Track | Start | Length | Start sector | End sector
---------------------------------------------------------
1 | 0:00.00 | 3:49.10 | 0 | 17184
2 | 3:49.10 | 3:29.51 | 17185 | 32910
3 | 7:18.61 | 2:09.41 | 32911 | 42626
4 | 9:28.27 | 3:49.01 | 42627 | 59802
5 | 13:17.28 | 3:36.08 | 59803 | 76010
6 | 16:53.36 | 3:37.22 | 76011 | 92307
7 | 20:30.58 | 5:06.10 | 92308 | 115267
8 | 25:36.68 | 4:23.45 | 115268 | 135037
9 | 30:00.38 | 4:20.71 | 135038 | 154608
10 | 34:21.34 | 3:10.25 | 154609 | 168883
11 | 37:31.59 | 3:24.31 | 168884 | 184214
12 | 40:56.15 | 4:44.17 | 184215 | 205531
13 | 45:40.32 | 5:39.14 | 205532 | 230970
14 | 51:19.46 | 3:57.66 | 230971 | 248811
15 | 55:17.37 | 1:50.55 | 248812 | 257116
16 | 57:08.17 | 3:21.55 | 257117 | 272246

Range status and errors

Selected range

Filename C:\Users\ubuntu\Desktop\RockExist2005\Фестиваль Рок-Екзистенція 2005 [CD I] (2006).wav

Peak level 100.0 %
Extraction speed 4.5 X
Range quality 100.0 %
Test CRC 7FF8810E
Copy CRC 7FF8810E
Copy OK

No errors occurred

AccurateRip summary

Track 1 not present in database
Track 2 not present in database
Track 3 not present in database
Track 4 not present in database
Track 5 not present in database
Track 6 not present in database
Track 7 not present in database
Track 8 not present in database
Track 9 not present in database
Track 10 not present in database
Track 11 not present in database
Track 12 not present in database
Track 13 not present in database
Track 14 not present in database
Track 15 not present in database
Track 16 not present in database

None of the tracks are present in the AccurateRip database

End of status report

---- CUETools DB Plugin V2.1.3

[CTDB TOCID: vTawfKnEcBKTyB4ncMOI3_Q6WXI-] found, Submit result: already submitted
[bce14fb3] (1/1) Accurately ripped
Куе-файл
REM GENRE Rock
REM DATE 2006
REM DISCID BF0E2D10
REM COMMENT "ExactAudioCopy v1.0b3"
PERFORMER "Various Artists"
TITLE "Фестиваль Рок-Екзистенція 2005 [CD I]"
FILE "Фестиваль Рок-Екзистенція 2005 [CD I] (2006).flac" WAVE
TRACK 01 AUDIO
TITLE "А ти відлітай"
PERFORMER "Н. Три"
INDEX 01 00:00:00
TRACK 02 AUDIO
TITLE "Іспанка"
PERFORMER "Помаранч"
INDEX 00 03:48:10
INDEX 01 03:49:10
TRACK 03 AUDIO
TITLE "Дерев'яна зозуля"
PERFORMER "Плач Єремії"
INDEX 00 07:17:61
INDEX 01 07:18:61
TRACK 04 AUDIO
TITLE "Марічка"
PERFORMER "Веранда"
INDEX 00 09:27:27
INDEX 01 09:28:27
TRACK 05 AUDIO
TITLE "Ріка"
PERFORMER "Ті, що падають вгору"
INDEX 00 13:16:28
INDEX 01 13:17:28
TRACK 06 AUDIO
TITLE "Трави нема"
PERFORMER "Оркест Янки Козир"
INDEX 00 16:52:36
INDEX 01 16:53:36
TRACK 07 AUDIO
TITLE "Я піду сьогодні в ніч"
PERFORMER "Весняний галас"
INDEX 00 20:29:58
INDEX 01 20:30:58
TRACK 08 AUDIO
TITLE "Серце - Місяць"
PERFORMER "Леся Герасимчук та Королівські зайці"
INDEX 00 25:35:68
INDEX 01 25:36:68
TRACK 09 AUDIO
TITLE "Волики"
PERFORMER "Очеретяний кіт"
INDEX 00 29:59:38
INDEX 01 30:00:38
TRACK 10 AUDIO
TITLE "З тобою"
PERFORMER "Бажана"
INDEX 00 34:20:34
INDEX 01 34:21:34
TRACK 11 AUDIO
TITLE "Mashine"
PERFORMER "Естетік Едюкейшн"
INDEX 00 37:30:59
INDEX 01 37:31:59
TRACK 12 AUDIO
TITLE "Піду За Обрій"
PERFORMER "Празник Святого Йоргена"
INDEX 00 40:55:15
INDEX 01 40:56:15
TRACK 13 AUDIO
TITLE "Білі Демони"
PERFORMER "Кому Вниз"
INDEX 00 45:39:32
INDEX 01 45:40:32
TRACK 14 AUDIO
TITLE "Па-па"
PERFORMER "Крихітка Цахес"
INDEX 00 51:18:46
INDEX 01 51:19:46
TRACK 15 AUDIO
TITLE "Вальс"
PERFORMER "Щастя"
INDEX 00 55:16:37
INDEX 01 55:17:37
TRACK 16 AUDIO
TITLE "Трек №3"
PERFORMER "Зе Моглас"
INDEX 00 57:07:17
INDEX 01 57:08:17
Спектр
CD II

01. Назад шляху немає та Олег Скрипка – Птах дощу 03:49
02. Перкалаба – Горрри! 03:24
03. Дай мамі поспати – Відчувай 05:36
04. Борщ – Бабло 02:38
05. Дивні – Як за тобою я тужив 02:36
06. Гайдамаки – Шіді-ріді 03:06
07. Гуцул Каліпсо – Ракет-ганстера 03:55
08. Мандри – Проміння 05:30
09. Інкунабула – Подаруй мені небо 04:12
10. Мертвий півень – Without You 04:48
11. Фактично самі та Сашко Положинський – Lovesong-0-667 03:56
12. Армада – Silence 05:13
13. ВВ – Були на селі 03:32
14. Формат це (Злобні нігери) – Malos mexicanos 05:44
15. Мотор'ролла – Вперед до сказу 03:27

Тривалість: 01:01:36
Бітрейт: 978 кб/с
Лоґ-файл
Exact Audio Copy V1.0 beta 3 from 29. August 2011

EAC extraction logfile from 12. February 2012, 0:41

Various Artists / Фестиваль Рок Екзистенція 2005 [CD II] (2006)

Used drive : ASUS DRW-20B1S Adapter: 0 ID: 0

Read mode : Secure
Utilize accurate stream : Yes
Defeat audio cache : Yes
Make use of C2 pointers : No

Read offset correction : 6
Overread into Lead-In and Lead-Out : No
Fill up missing offset samples with silence : Yes
Delete leading and trailing silent blocks : No
Null samples used in CRC calculations : Yes
Used interface : Native Win32 interface for Win NT & 2000

Used output format : Internal WAV Routines
Sample format : 44.100 Hz; 16 Bit; Stereo

TOC of the extracted CD

Track | Start | Length | Start sector | End sector
---------------------------------------------------------
1 | 0:00.00 | 3:49.47 | 0 | 17221
2 | 3:49.47 | 3:24.72 | 17222 | 32593
3 | 7:14.44 | 5:36.73 | 32594 | 57866
4 | 12:51.42 | 2:38.59 | 57867 | 69775
5 | 15:30.26 | 2:36.49 | 69776 | 81524
6 | 18:07.00 | 3:06.73 | 81525 | 95547
7 | 21:13.73 | 3:55.28 | 95548 | 113200
8 | 25:09.26 | 5:30.66 | 113201 | 138016
9 | 30:40.17 | 4:12.23 | 138017 | 156939
10 | 34:52.40 | 4:48.52 | 156940 | 178591
11 | 39:41.17 | 3:56.04 | 178592 | 196295
12 | 43:37.21 | 5:13.31 | 196296 | 219801
13 | 48:50.52 | 3:32.53 | 219802 | 235754
14 | 52:23.30 | 5:44.66 | 235755 | 261620
15 | 58:08.21 | 3:27.71 | 261621 | 277216

Range status and errors

Selected range

Filename C:\Users\ubuntu\Desktop\RockExist2005\Фестиваль Рок Екзистенція 2005 [CD II] (2006).wav

Peak level 100.0 %
Extraction speed 7.2 X
Range quality 100.0 %
Test CRC FB1FB46E
Copy CRC FB1FB46E
Copy OK

No errors occurred

AccurateRip summary

Track 1 not present in database
Track 2 not present in database
Track 3 not present in database
Track 4 not present in database
Track 5 not present in database
Track 6 not present in database
Track 7 not present in database
Track 8 not present in database
Track 9 not present in database
Track 10 not present in database
Track 11 not present in database
Track 12 not present in database
Track 13 not present in database
Track 14 not present in database
Track 15 not present in database

None of the tracks are present in the AccurateRip database

End of status report

---- CUETools DB Plugin V2.1.3

[CTDB TOCID: misSdBGolRH0OpInR48bcfgAkMQ-] disk not present in database, Submit result: misSdBGolRH0OpInR48bcfgAkMQ- has been uploaded
Куе-файл
REM GENRE Rock
REM DATE 2006
REM DISCID CA0E700F
REM COMMENT "ExactAudioCopy v1.0b3"
PERFORMER "Various Artists"
TITLE "Фестиваль Рок Екзистенція 2005 [CD II] (2006)"
FILE "Фестиваль Рок Екзистенція 2005 [CD II] (2006).flac" WAVE
TRACK 01 AUDIO
TITLE "Птах дощу"
PERFORMER "Назад шляху немає та Олег Скрипка"
INDEX 01 00:00:00
TRACK 02 AUDIO
TITLE "Горрри!"
PERFORMER "Перкалаба"
INDEX 00 03:47:47
INDEX 01 03:49:47
TRACK 03 AUDIO
TITLE "Відчувай"
PERFORMER "Дай мамі поспати"
INDEX 00 07:12:44
INDEX 01 07:14:44
TRACK 04 AUDIO
TITLE "Бабло"
PERFORMER "Борщ"
INDEX 00 12:49:42
INDEX 01 12:51:42
TRACK 05 AUDIO
TITLE "Як за тобою я тужив"
PERFORMER "Дивні"
INDEX 00 15:28:26
INDEX 01 15:30:26
TRACK 06 AUDIO
TITLE "Шіді-ріді"
PERFORMER "Гайдамаки"
INDEX 00 18:05:00
INDEX 01 18:07:00
TRACK 07 AUDIO
TITLE "Ракет-ганстера"
PERFORMER "Гуцул Каліпсо"
INDEX 00 21:11:73
INDEX 01 21:13:73
TRACK 08 AUDIO
TITLE "Проміння"
PERFORMER "Мандри"
INDEX 00 25:07:26
INDEX 01 25:09:26
TRACK 09 AUDIO
TITLE "Подаруй мені небо"
PERFORMER "Інкунабула"
INDEX 00 30:38:17
INDEX 01 30:40:17
TRACK 10 AUDIO
TITLE "Without you"
PERFORMER "Мертвий Півень"
INDEX 00 34:50:40
INDEX 01 34:52:40
TRACK 11 AUDIO
TITLE "Lovesong-0-667"
PERFORMER "Фактично Самі та Сашко Положинський"
INDEX 00 39:39:17
INDEX 01 39:41:17
TRACK 12 AUDIO
TITLE "Silence"
PERFORMER "Армада"
INDEX 00 43:35:21
INDEX 01 43:37:21
TRACK 13 AUDIO
TITLE "Були на селі"
PERFORMER "ВВ"
INDEX 00 48:48:52
INDEX 01 48:50:52
TRACK 14 AUDIO
TITLE "Malos mexicanos"
PERFORMER "Формат це (Злобні нігери)"
INDEX 00 52:21:30
INDEX 01 52:23:30
TRACK 15 AUDIO
TITLE "Вперед до сказу"
PERFORMER "Мотор'ролла"
INDEX 00 58:06:21
INDEX 01 58:08:21
Спектр
Загальна тривалість: 02:02:05
Мова: українська
Аудіо-кодек: FLAC
Бітрейт: 914-978 кб/с (див. подисково)
Джерело: власний ріп, за надані диски щира дяка користувачеві jozhyk_bo

Додаткова інформація:
Мистецька агенція "Арт Велес" видала збірку, підготовлену слідами фестивалю Рок Екзистенція-2005. Це двоплитник на 31 стежину – по пісні від учасника фесту. Зокрема у збірнику можна надибати на гурти Н.Три, Гуцул Каліпсо, Ті, що падають вгору, Оркестр Янки Козир, Очеретяний кіт, Бажана, Щастя, Дивні, Інкунабула, Армада, а також знаних ВВ, Кому Вниз, Мотор'ролла, Мертвий півень, Гайдамаки, Крихітка Цахес та низку інших. Платівка була видана у жовтні 2006, приблизно через рік потому, як відбувся фест. Нагадаємо, що Рок-Екзистенція гуде раз на два роки. Забава 2005 року відбулася у новому для себе форматі: тривала два дні на трьох підмостках одночасно на території НТУУ "КПІ".


Якщо Ви справді бажаєте підтримати українське — після прослуховування, якщо музика вам сподобалась,
придбайте ліцензійний диск.
Підтримаймо вітчизняних виконавців!


Срібний реліз (на рейтинг впливає 50% завантаженого)
 Трекер:    Зареєстрований   

Завантажити / скачати українську музику



відео для новачків



 Зареєстрований:   2012-02-12 18:21
 Розмір:   861 MB 
 Оцінка музики:   10/10 (Голосів: 6)
   
bot 
робот


З нами з: 30.09.07
Востаннє: 26.05.05
Повідомлень: 15977

2012-02-12 18:22  
Тему перенесено з Сирий матеріал до форуму Рок, Метал, Альтернатива, Панк, СКА


jinotot

jinotot 
Почесний оцифрувальник літератури


З нами з: 28.01.09
Востаннє: 16.11.16
Повідомлень: 3235

2012-02-12 18:24  
Так само пропоную кому-небудь стягнути й зробити реліз в МР3. Коди для оформлення надам.
Lev 
VIP


З нами з: 14.10.09
Востаннє: 28.11.16
Повідомлень: 1819

2012-02-12 19:59  
О, от це раритетна штуковина!
jinotot 
Почесний оцифрувальник літератури


З нами з: 28.01.09
Востаннє: 16.11.16
Повідомлень: 3235

2012-02-12 20:21  
Lev, ага, бачив десь у твоєму блозі рецензію, здається.
І оце тільки сьогодні до мене дійшло, що це диск якраз із тієї єдиної Екзистенції, на якій я був — у капеях... Що цікаво, ми тоді обидва дні просиділи в ДК, на акустичній сцені, в першому ряду. До виконаців рукою можна було дотягнутися. І хоча через таку посидючість пропустили чимало класних виконавців на інших сценах, але виступи МП та ПЄ на цій сцені були того варті. Я той драйв і досі пам’ятаю, це щось!

Kirin 
VIP


З нами з: 28.07.08
Востаннє: 03.12.16
Повідомлень: 257

2012-02-13 15:42  
Супер Happy шкода що зараз немає цього фесту... Це — запис останнього... а справді шкода: назва супер!
Lev 
VIP


З нами з: 14.10.09
Востаннє: 28.11.16
Повідомлень: 1819

2012-02-25 05:15  
Kirin написано:
Це — запис останнього...


Це студійні треки учасників, всього-навсього, промо-збірка свого роду. Не треба плутати.

Waldemar88 
Новенький


З нами з: 28.06.13
Востаннє: 29.10.16
Повідомлень: 6

2013-11-27 15:56  
Дайте скачати, будь ласка!
civ 
VIP


З нами з: 16.02.11
Востаннє: 02.12.16
Повідомлень: 428

2013-11-28 21:56  
Якась лажа. На роздачі є, але ніц не качається...
civ 
VIP


З нами з: 16.02.11
Востаннє: 02.12.16
Повідомлень: 428

2013-12-03 19:42  
Хто-небудь, станьте на роздачу! З Ign1000 нічого не качається.
Ваш часовий пояс: GMT + 2 Години

Нова тема   Відповісти