Завантажити та скачати торренти українською


Мавп’яча кістка / Monkeybone (2001) 720p Ukr | Sub Eng/Ukr

Нові коментарі

Нова тема   Відповісти
Останній раз роздавалося natashelka (2016-12-04)
Автор Повідомлення
Zeus62 
Відео Гуртом - команда HD
Відео Гуртом - команда HD


З нами з: 29.12.08
Востаннє: 16.11.16
Повідомлень: 330

2012-02-12 11:48  
Мавп’яча кістка / Monkeybone (2001) 720p Ukr | Sub Eng/Ukr


Жанр: фентезі, мелодрама, комедія
Країна: США



Кіностудія / кінокомпанія: Twentieth Century Fox Film Corporation, 1492 Pictures, Twitching Image Studio
Режисер: Генрі Селік
Актори: Брендан Фрейзер, Бріджит Фонду, Джон Туртурро, Кріс Кеттен, Джанкарло Еспозіто, Роуз МакГоун, Дейв Фолі, Меган Маллаллі, Боб Оденкірк, Пет Кілбейн

Сюжет:
Після курйозної автокатастрофи, Стю, молодий талановитий художник-мультиплікатор впадає в кому. Його свідомість відділяється від тіла, і він занурюється в царство Морфея. Йому сняться всякі мультиплікаційні кошмари, найстрашніший з яких як дві краплі води схожий на його останню розробку - божевільну хтиву мавпу. Подорожуючи по лабіринтах підсвідомості в обнімку зі своїми новими друзями, мутантами, упирями і звичайно мавпою, Стю намагається знайти вихід з цього гротескового нереального світу, в якому він опинився. Але коли у Стю з'являється рідкісна можливість покинути цей кошмар і прокинутися, зухвала мавпа підло обманює його і вселяється в його тіло. Улюблена дівчина і друзі Стю дуже раді його поверненню. Звичайно, вони помічають що відбулися з ним зміни, але ніхто і не здогадується, що усередині Стю ховається зухвала, розбещена, підла, але дуже весела мавпа.

Тривалість: 01:32:43
Якість:
Відео:
кодек:
розмір кадру: 1280 х 696
бітрейт: 5151 кб/с

Аудіо:
мова: українська
переклад: двоголосий закадровий
кодек: 5.1
бітрейт: 1510 кб/с

Субтитри 1:
мова: англійська
тип: пререндерні
формат: *.pgs

Субтитри 2:
мова: українська
тип: пререндерні
формат: *.pgs
MediaInfo:
File size : 4.33 GiB
Duration : 1h 32mn
Overall bit rate : 6 679 Kbps
Encoded date : UTC 2012-02-13 10:03:39
Writing application : mkvmerge v5.3.0 ('I could have danced') built on Feb 9 2012 23:25:33
Writing library : libebml v1.2.2 + libmatroska v1.3.0

Video
ID : 1
Format : AVC
Format/Info : Advanced Video Codec
Format profile : [email protected]
Format settings, CABAC : Yes
Format settings, ReFrames : 16 frames
Codec ID : V_MPEG4/ISO/AVC
Duration : 1h 32mn
Bit rate : 5 151 Kbps
Width : 1 280 pixels
Height : 696 pixels
Display aspect ratio : 16:9
Frame rate mode : Variable
Frame rate : 23.976 fps
Color space : YUV
Chroma subsampling : 4:2:0
Bit depth : 8 bits
Scan type : Progressive
Bits/(Pixel*Frame) : 0.241
Stream size : 3.26 GiB (75%)
Writing library : core 112
Encoding settings : cabac=1 / ref=16 / deblock=1:-3:-3 / analyse=0x3:0x113 / me=umh / subme=10 / psy=1 / psy_rd=1,00:0,00 / mixed_ref=1 / me_range=64 / chroma_me=1 / trellis=2 / 8x8dct=1 / cqm=0 / deadzone=21,11 / fast_pskip=1 / chroma_qp_offset=-2 / threads=9 / sliced_threads=0 / nr=0 / decimate=1 / interlaced=0 / constrained_intra=0 / bframes=16 / b_pyramid=2 / b_adapt=2 / b_bias=0 / direct=1 / weightb=1 / open_gop=0 / weightp=2 / keyint=240 / keyint_min=23 / scenecut=40 / intra_refresh=0 / rc_lookahead=50 / rc=2pass / mbtree=1 / bitrate=5151 / ratetol=1,0 / qcomp=0,60 / qpmin=3 / qpmax=51 / qpstep=4 / cplxblur=20,0 / qblur=0,5 / ip_ratio=1,40 / aq=1:1,00
Language : English
Default : Yes
Forced : No
Color primaries : BT.709-5, BT.1361, IEC 61966-2-4, SMPTE RP177
Transfer characteristics : BT.709-5, BT.1361
Matrix coefficients : BT.709-5, BT.1361, IEC 61966-2-4 709, SMPTE RP177

Audio
ID : 2
Format :
Format/Info : Digital Theater Systems
Codec ID : A_DTS
Duration : 1h 32mn
Bit rate mode : Constant
Bit rate : 1 510 Kbps
Channel(s) : 6 channels
Channel positions : Front: L C R, Side: L R, LFE
Sampling rate : 48.0 KHz
Bit depth : 24 bits
Compression mode : Lossy
Stream size : 1 001 MiB (23%)
Default : Yes
Forced : No

Text #1
ID : 3
Format : PGS
Muxing mode : zlib
Codec ID : S_HDMV/PGS
Codec ID/Info : The same subtitle format used on BDs/HD-DVDs
Language : English
Default : Yes
Forced : No

Text #2
ID : 4
Format : PGS
Muxing mode : zlib
Codec ID : S_HDMV/PGS
Codec ID/Info : The same subtitle format used on BDs/HD-DVDs
Language : Ukrainian
Default : No
Forced : No
log:
[info]: frame I:1042 Avg QP:12,70 size:154364 PSNR Mean Y:49,03 U:52,13 V:54,65 Avg:49,74 Global:49,44
[info]: frame P:28625 Avg QP:15,86 size: 54647 PSNR Mean Y:46,27 U:51,68 V:53,87 Avg:47,08 Global:46,61
[info]: frame B:103708 Avg QP:17,54 size: 17661 PSNR Mean Y:45,17 U:50,91 V:53,51 Avg:46,06 Global:45,76
[info]: consecutive B-frames: 0,9% 2,6% 6,2% 26,0% 19,9% 30,7% 6,2% 6,3% 0,5% 0,3% 0,1% 0,2% 0,1% 0,0% 0,0% 0,0% 0,0%
[info]: mb I I16..4: 26,8% 0,0% 73,2%
[info]: mb P I16..4: 42,1% 0,0% 0,0% P16..4: 53,8% 0,0% 0,0% 0,0% 0,0% skip: 4,1%
[info]: mb B I16..4: 10,2% 0,0% 0,0% B16..8: 36,3% 0,0% 0,0% direct:26,4% skip:27,1% L0:30,1% L1:36,9% BI:33,0%
[info]: final ratefactor: 15,65
[info]: coded y,uvDC,uvAC intra: 73,7% 66,4% 44,7% inter: 30,3% 29,9% 5,2%
[info]: i16 v,h,dc,p: 29% 18% 38% 14%
[info]: i4 v,h,dc,ddl,ddr,vr,hd,vl,hu: 19% 15% 23% 4% 10% 7% 7% 7% 9%
[info]: i8c dc,h,v,p: 56% 18% 20% 6%
[info]: Weighted P-Frames: Y:2,3% UV:1,5%
[info]: SSIM Mean Y:0,9805477 (17,110db)
[info]: PSNR Mean Y:45,439 U:51,087 V:53,599 Avg:46,309 Global:45,946 kb/s:5114,27
[info]: using cpu capabilities: MMX2 SSE2Fast FastShuffle SSEMisalign LZCNT
[info]: profile High, level 5.0
[info]: frame I:1042 Avg QP:13,46 size:154910 PSNR Mean Y:48,95 U:52,96 V:55,47 Avg:49,84 Global:49,62
[info]: frame P:28625 Avg QP:16,56 size: 53145 PSNR Mean Y:46,48 U:52,57 V:54,83 Avg:47,44 Global:47,07
[info]: frame B:103708 Avg QP:18,87 size: 18310 PSNR Mean Y:45,18 U:51,61 V:54,35 Avg:46,20 Global:45,98
[info]: consecutive B-frames: 0,9% 2,6% 6,2% 26,0% 19,9% 30,7% 6,2% 6,3% 0,5% 0,3% 0,1% 0,2% 0,1% 0,0% 0,0% 0,0% 0,0%
[info]: mb I I16..4: 2,4% 81,7% 15,8%
[info]: mb P I16..4: 0,8% 11,9% 1,3% P16..4: 36,2% 31,4% 16,3% 0,0% 0,0% skip: 2,1%
[info]: mb B I16..4: 0,0% 1,1% 0,1% B16..8: 43,7% 15,5% 4,3% direct: 7,5% skip:27,8% L0:45,1% L1:46,0% BI: 8,9%
[info]: 8x8 transform intra:85,4% inter:63,2%
[info]: coded y,uvDC,uvAC intra: 93,6% 87,3% 68,7% inter: 32,6% 31,5% 9,1%
[info]: i16 v,h,dc,p: 27% 11% 14% 48%
[info]: i8 v,h,dc,ddl,ddr,vr,hd,vl,hu: 11% 7% 6% 10% 15% 14% 13% 12% 12%
[info]: i4 v,h,dc,ddl,ddr,vr,hd,vl,hu: 11% 6% 3% 11% 16% 16% 14% 12% 12%
[info]: i8c dc,h,v,p: 46% 19% 18% 17%
[info]: Weighted P-Frames: Y:2,3% UV:1,5%
[info]: ref P L0: 40,8% 7,8% 19,0% 6,9% 6,3% 4,0% 3,9% 1,9% 1,9% 1,4% 1,4% 1,1% 1,2% 0,9% 1,0% 0,6%
[info]: ref B L0: 72,6% 11,6% 4,9% 2,7% 1,9% 1,6% 1,2% 0,8% 0,6% 0,6% 0,5% 0,4% 0,4% 0,3% 0,1%
[info]: ref B L1: 93,5% 6,5%
[info]: SSIM Mean Y:0,9797961 (16,946db)
[info]: PSNR Mean Y:45,488 U:51,823 V:54,461 Avg:46,499 Global:46,213 kb/s:5150,13
Скріншоти:
Original vs Encode






Джерело: Власний ріп + +
Особиста оцінка: 8 - мені сподобалося


Срібний реліз (на рейтинг впливає 50% завантаженого)
 Трекер:    Зареєстрований   

Завантажити / скачати фільм українською



відео для новачків



 Зареєстрований:   2012-02-13 12:15
 Розмір:   4.33 GB 
 Оцінка фільму:   9.8/10 (Голосів: 6)
   
Інші релізи
   Мавпяча паща або Манкібон / Monkeybone (2001) patriot2305  2 / 0   1.45 GB   2014-08-26 20:16 
Anonymous 







2012-02-12 23:06  
а не шдклаб джерело
leroykendall 
Модератор HD


З нами з: 03.01.11
Востаннє: 20.11.16
Повідомлень: 749

2012-02-14 00:44  
Zeus62 написано:
Ukr/Eng

І в темі, і в описі треба змінити порядок субтитрів, як у контейнері: Eng/Ukr

Zeus62 
Відео Гуртом - команда HD
Відео Гуртом - команда HD


З нами з: 29.12.08
Востаннє: 16.11.16
Повідомлень: 330

2012-02-14 01:58  
leroykendall
добре.

Віктор 
Відео Гуртом - субтитрування
Відео Гуртом - субтитрування


З нами з: 09.01.10
Востаннє: 04.12.16
Повідомлень: 8663

2012-12-01 19:08  
Сьогодні буде по 1+1.

Додано через 1 годину 18 хвилин 2 секунди:

І апостроф у слові мавпячий не ставиться - http://slovoua.com/questions/16

Ваш часовий пояс: GMT + 2 Години

Нова тема   Відповісти