Завантажити та скачати торренти українською


Я люблю неприємності / I Love Trouble (1994) 720p 2xUkr/Eng | Sub Eng

Нові коментарі

Нова тема   Відповісти
Автор Повідомлення
Віктор 
Відео Гуртом - субтитрування
Відео Гуртом - субтитрування


З нами з: 09.01.10
Востаннє: 04.12.16
Повідомлень: 8663

2012-02-11 19:33  
Я люблю неприємності / I Love Trouble (1994) 720p 2xUkr/Eng | Sub Eng



«Romance Was Never More Dangerous!»


Жанр: пригодницький, комедія, романтичний
Країна: США



Кіностудія / кінокомпанія: Caravan Pictures, Touchstone Pictures
Режисер: Чарльз Шаєр (Charles Shyer)
Композитор: Девід Ньюмен (David Newman)
Актори: Джулія Робертс (Julia Roberts), Нік Нолті (Nick Nolte), Сол Рабінек (Saul Rubinek), Джейн Адамс (Jane Adams), Джеймс Реборн (James Rebhorn), Роберт Лоджа (Robert Loggia), Олімпія Дукакіс (Olympia Dukakis), Юджин Леві (Eugene Levy), Пол Ґлісон (Paul Gleason), Кларк Ґреґґ (Clark Gregg) та інші.

Сюжет:
Головні герої - конкуруючі журналісти, які постійно ганяються за сенсаціями і також постійно нариваються на неприємності.
Намагаючись позбутися один від одного в розслідуванні таємничої залізничної катастрофи, вони випадково натикаються на страшну правду, яка кидає їх в обійми страху і ... в обійми один одного. Ніколи ще кохання не було таким небезпечним!
MediaInfo

Код:
General
Unique ID                        : 183411489006210552060317890101584269535 (0x89FBC493ED0C2543AD50526DFCFB10DF)
Complete name                    : D:\HURTOM\I Love Trouble (1994) [2xUkr, Eng] 720p [Hurtom, HDCLUB].mkv
Format                           : Matroska
Format version                   : Version 2
File size                        : 7.26 GiB
Duration                         : 2h 2mn
Overall bit rate                 : 8 463 Kbps
Movie name                       : I Love Trouble (1994) [2xUkr, Eng] 720p [Hurtom, HDCLUB]
Encoded date                     : UTC 2012-02-11 19:40:59
Writing application              : mkvmerge v5.0.1 ('Es ist Sommer') built on Oct  9 2011 11:55:43
Writing library                  : libebml v1.2.2 + libmatroska v1.3.0

Video
ID                               : 1
Format                           : AVC
Format/Info                      : Advanced Video Codec
Format profile                   : [email protected]
Format settings, CABAC           : Yes
Format settings, ReFrames        : 9 frames
Codec ID                         : V_MPEG4/ISO/AVC
Duration                         : 2h 2mn
Bit rate                         : 7 000 Kbps
Width                            : 1 280 pixels
Height                           : 720 pixels
Display aspect ratio             : 16:9
Frame rate                       : 23.976 fps
Color space                      : YUV
Chroma subsampling               : 4:2:0
Bit depth                        : 8 bits
Scan type                        : Progressive
Bits/(Pixel*Frame)               : 0.317
Stream size                      : 5.86 GiB (81%)
Title                            : I Love Trouble (1994) [2xUkr, Eng] 720p [Hurtom, HDCLUB]
Writing library                  : core 116 r2019 9cc407d
Encoding settings                : cabac=1 / ref=9 / deblock=1:-3:-3 / analyse=0x3:0x133 / me=umh / subme=10 / psy=1 / psy_rd=1.00:0.00 / mixed_ref=1 / me_range=48 / chroma_me=1 / trellis=2 / 8x8dct=1 / cqm=0 / deadzone=21,11 / fast_pskip=1 / chroma_qp_offset=-2 / threads=6 / sliced_threads=0 / nr=0 / decimate=1 / interlaced=0 / bluray_compat=0 / constrained_intra=0 / bframes=7 / b_pyramid=2 / b_adapt=2 / b_bias=0 / direct=3 / weightb=1 / open_gop=0 / weightp=2 / keyint=250 / keyint_min=23 / scenecut=40 / intra_refresh=0 / rc=2pass / mbtree=0 / bitrate=7000 / ratetol=1.0 / qcomp=0.60 / qpmin=0 / qpmax=69 / qpstep=4 / cplxblur=20.0 / qblur=0.5 / ip_ratio=1.40 / pb_ratio=1.30 / aq=1:0.70
Language                         : English
Default                          : Yes
Forced                           : No

Audio #1
ID                               : 2
Format                           : AC-3
Format/Info                      : Audio Coding 3
Mode extension                   : CM (complete main)
Codec ID                         : A_AC3
Duration                         : 2h 2mn
Bit rate mode                    : Constant
Bit rate                         : 192 Kbps
Channel(s)                       : 2 channels
Channel positions                : Front: L R
Sampling rate                    : 48.0 KHz
Bit depth                        : 16 bits
Compression mode                 : Lossy
Stream size                      : 169 MiB (2%)
Title                            : 2.0 @ 192 kbps - двоголосий закадровий | Лариса Руснак і Олег Лепенець |запис звуку з 1+1
Language                         : Ukrainian
Default                          : Yes
Forced                           : No

Audio #2
ID                               : 3
Format                           : AC-3
Format/Info                      : Audio Coding 3
Mode extension                   : CM (complete main)
Codec ID                         : A_AC3
Duration                         : 2h 2mn
Bit rate mode                    : Constant
Bit rate                         : 640 Kbps
Channel(s)                       : 6 channels
Channel positions                : Front: L C R, Side: L R, LFE
Sampling rate                    : 48.0 KHz
Bit depth                        : 16 bits
Compression mode                 : Lossy
Stream size                      : 562 MiB (8%)
Title                            : 5.1 @ 640 kbps - двоголосий закадровий | Новий канал
Language                         : Ukrainian
Default                          : No
Forced                           : No

Audio #3
ID                               : 4
Format                           : AC-3
Format/Info                      : Audio Coding 3
Mode extension                   : CM (complete main)
Codec ID                         : A_AC3
Duration                         : 2h 2mn
Bit rate mode                    : Constant
Bit rate                         : 640 Kbps
Channel(s)                       : 6 channels
Channel positions                : Front: L C R, Side: L R, LFE
Sampling rate                    : 48.0 KHz
Bit depth                        : 16 bits
Compression mode                 : Lossy
Stream size                      : 562 MiB (8%)
Title                            : 5.1 @ 640 kbps
Language                         : English
Default                          : No
Forced                           : No

Text
ID                               : 5
Format                           : UTF-8
Codec ID                         : S_TEXT/UTF8
Codec ID/Info                    : UTF-8 Plain Text
Language                         : English
Default                          : No
Forced                           : No

Menu
00:00:00.000                     : en:00:00:00.000
00:09:06.546                     : en:00:09:06.546
00:17:28.381                     : en:00:17:28.381
00:30:21.194                     : en:00:30:21.194
00:42:42.393                     : en:00:42:42.393
00:53:02.012                     : en:00:53:02.012
01:04:52.806                     : en:01:04:52.806
01:24:11.630                     : en:01:24:11.630
01:37:58.915                     : en:01:37:58.915
01:56:09.337                     : en:01:56:09.337
01:58:31.813                     : en:01:58:31.813
Всі наявні релізи

Завантажити:
720p 2xUkr/Eng | Sub Eng (7.26 GB) - двоголосий закадровий запис звуку з 1+1 і двоголосий закадровий Новий Канал
[url=] ( GB)[/url] -

Про доріжку записану з 1+1
Ролі озвучили: Лариса Руснак і Олег Лепенець

Про доріжку з Нового Каналу
Ролі озвучили: Олесь Гімбаржевський
Тривалість: 02:02:42
Якість: 720р (EbP)
Відео:
кодек:
розмір кадру: 1280x720
бітрейт: 7000 кб/с

Аудіо # 1:
мова: українська
переклад: двоголосий закадровий запис звуку з 1+1 | Ролі озвучили: Лариса Руснак і Олег Лепенець
кодек: 2.0
бітрейт: 192 кб/с

Аудіо # 2:
мова: українська
переклад: двоголосий закадровий Новий Канал | усі чоловічі ролі озвучив: Олесь Гімбаржевський
кодек: 5.1
бітрейт: 640 кб/с

Цитата:
За накладання чистих голосів на доріжку №2 подяка Прагматик-у.


Аудіо # 3:
мова: англійська
переклад: оригінал
кодек: 5.1
бітрейт: 640 кб/с

Субтитри:
мова: англійська
тип: програмні (м'які)
формат: *.srt

Скріншоти:





За синхронізацію української доріжки №1 подяка robotron005,
за запис звуку з ТБ подяка ProgBassing-у


Джерело: &
Особиста оцінка: не дивився


Срібний реліз (на рейтинг впливає 50% завантаженого)
 Трекер:    Зареєстрований   

Завантажити / скачати фільм українською



відео для новачків



 Зареєстрований:   2012-02-11 22:03
 Розмір:   7.26 GB 
 Оцінка фільму:   6.1/10 (Голосів: 7)
   
Інші релізи
bot 
робот


З нами з: 30.09.07
Востаннє: 26.05.05
Повідомлень: 15989

2012-02-11 22:02  
Тему перенесено з Анонси релізів від Відео Гуртом до форуму Фільми в HD


w2958l

waldi-hurtom 
VIP


З нами з: 07.10.12
Востаннє: 03.12.16
Повідомлень: 611

2013-01-05 21:21  
Якщо не дивились раніше - можна помилуватись молоденькою Джулією Робертс і розслабитись з пляшкою пива Happy 5/10 До речі, по ТБ цю комедію майже не крутили.
Ваш часовий пояс: GMT + 2 Години

Нова тема   Відповісти