Завантажити та скачати торренти українською


Іп Мен / Yip Man / Ip Man (2008) 720p-mini Ukr/Chi | Sub Eng

Нові коментарі

Нова тема   Відповісти
Автор Повідомлення
Anonymous 







2012-02-10 21:38  
Іп Мен / Yip Man / Ip Man (2008) 720p-mini Ukr/Chi | Sub Eng

Іп Мен / Yip Man / Ip Man (2008) 720p-mini Ukr/Chi | Sub Eng
інші постери:





Жанр: екшн, біографічний, драма
Країна: Гонконг, Китай



Top 250: #233



Кіностудія / кінокомпанія: Beijing ShengShi HuaRei Film Investment & Management Co., China Film Co-Production Corporation, Mandarin Films Distribution Co.
Режисер: Вілсон Іп / Wilson Yip
Актори: Донні Єн / Donnie Yen, Саймон Ям / Simon Yam, Сю-Вонг Фан / Siu-Wong Fan, Ка Тунг Лам / Ka Tung Lam, Ю Хін / Yu Xing, Ю-Нам Вонг / You-Nam Wong, Чен Зі Хуі / Chen Zhi Hui, та інші.



Сюжет:
Іп Ман - визнаний майстер кунг фу, що живе в Фуошане, місті, славному своїми школами бойових мистецтв. Іп Ман практикує Він Чун і хоч і є найсильнішим бійцем міста, своєї школи у нього немає, і він не бере учнів. Вдома він проводить лише легкі спаринги з приятелями, щоб вказати на помилки один одного. Проходять роки, Китай захоплюють войовничі японці, і Іп Ман виявляється одним з небагатьох, хто навіть в жорстоких умовах окупації не забуває про честь, гідність і, звичайно ж, мудрість, яку несе в собі кунг фу.




Тривалість: 01:46:21



Якість: (Джерело: Blu-Ray Remux 1080p)
Відео:
кодек:
розмір кадру: 1280x544
бітрейт: 2959 кб/с

Аудіо 1:
мова: українська
переклад: багатоголосий закадровий
кодек: 5.1
бітрейт: 640 кб/с

Аудіо 2: китайська
переклад: оригінал
кодек: 5.1
бітрейт: 384 кб/с

Переклад і озвучення виконано:
ТО "Цікава Ідея" на замовлення Hurtom.com

Субтитри:
мова: англійська
тип: програмні (м'які)
формат: *.srt

Переклад і озвучування здійснено в рамках сервісу "Озвучення"
Медіапартнер:

Подяки: bilenkuyboy та TheMarlboro за українізовані постери



MediaInfo

Format : Matroska
File size : 3.02 GiB
Duration : 1h 46mn
Overall bit rate : 4 064 Kbps
Movie name : Іп Мен / Yip Man / Ip Man (2008) 1080p
Encoded date : UTC 2012-02-11 10:50:15
Writing application : mkvmerge v2.4.2 ('Oh My God') built on Jan 18 2009 17:30:28
Writing library : libebml v0.7.7 + libmatroska v0.8.1
Video #1
ID : 1
Format : AVC
Format/Info : Advanced Video Codec
Format profile : [email protected]
Format settings, CABAC : Yes
Format settings, ReFrames : 10 frames
Muxing mode : Container [email protected]
Codec ID : V_MPEG4/ISO/AVC
Duration : 1h 46mn
Bit rate : 2 959 Kbps
Nominal bit rate : 3 040 Kbps
Width : 1 280 pixels
Height : 544 pixels
Display aspect ratio : 2.35:1
Frame rate : 24.000 fps
Resolution : 24 bits
Colorimetry : 4:2:0
Scan type : Progressive
Bits/(Pixel*Frame) : 0.177
Stream size : 2.20 GiB (73%)
Title : Ип Ман / Yip Man / Ip Man (2008) AVC
Writing library : core 80 r1376M 3feaec2
Encoding settings : cabac=1 / ref=10 / deblock=1:-2:-1 / analyse=0x3:0x113 / me=umh / subme=10 / psy=1 / psy_rd=0.9:0.2 / mixed_ref=1 / me_range=32 / chroma_me=1 / trellis=2 / 8x8dct=1 / cqm=0 / deadzone=21,11 / fast_pskip=1 / chroma_qp_offset=-3 / threads=3 / sliced_threads=0 / slices=4 / nr=0 / decimate=1 / mbaff=0 / constrained_intra=0 / bframes=10 / b_pyramid=2 / b_adapt=2 / b_bias=0 / direct=1 / wpredb=1 / wpredp=2 / keyint=250 / keyint_min=25 / scenecut=40 / rc_lookahead=40 / rc=2pass / mbtree=1 / bitrate=3040 / ratetol=1.0 / qcomp=0.65 / qpmin=10 / qpmax=51 / qpstep=4 / cplxblur=20.0 / qblur=0.5 / vbv_maxrate=40000 / vbv_bufsize=30000 / ip_ratio=1.40 / aq=1:1.00
Audio #2
ID : 2
Format : AC-3
Format/Info : Audio Coding 3
Codec ID : A_AC3
Duration : 1h 46mn
Bit rate mode : Constant
Bit rate : 640 Kbps
Channel(s) : 6 channels
Channel positions : Front: L C R, Surround: L R, LFE
Sampling rate : 48.0 KHz
Stream size : 487 MiB (16%)
Title : ТО "Цікава Ідея" на замовлення Hurtom.com
Language : Ukrainian
Audio #3
ID : 3
Format : AC-3
Format/Info : Audio Coding 3
Codec ID : A_AC3
Duration : 1h 46mn
Bit rate mode : Constant
Bit rate : 384 Kbps
Channel(s) : 6 channels
Channel positions : Front: L C R, Surround: L R, LFE
Sampling rate : 48.0 KHz
Stream size : 292 MiB (9%)
Title : Оригинал
Language : Chinese
Text #4
ID : 4
Format : UTF-8
Codec ID : S_TEXT/UTF8
Codec ID/Info : UTF-8 Plain Text
Language : English
Скріншоти








Джерело:
Особиста оцінка: 10/10


Авторський реліз (завантажувати можна без реєстрації)
 Трекер:    Зареєстрований   

Завантажити / скачати фільм українською



відео для новачків



 Зареєстрований:   2012-02-11 22:49
 Розмір:   3.02 GB 
 Оцінка фільму:   9.1/10 (Голосів: 44)
   
Інші релізи
   Іп Мен / Yip Man / Ip Man (2008) 720p Ukr/Chi | sub Eng DiGen  1 / 0   5.85 GB   2012-02-11 03:46 
   Іп Мен / Yip Man / Ip Man (2008) Remux Ukr/Chi | sub Eng/Chi Andick  0 / 1   22.17 GB   2012-02-11 00:44 
   Іп Мен / Yip Man / Ip Man (2008) 1080p Ukr/Chi | sub Eng Andick  2 / 0   9.97 GB   2012-02-10 21:07 
   Іп Мен / Yip Man / Ip Man (2008) Цікава ідея  10 / 0   1.45 GB   2012-02-10 20:23 
Anonymous 







2012-02-11 22:55  
Торрент оновлено! змінена укр-а звук. доріжка на більш якісну, додані анг-і субтитри
The_Marlboro 
Відео Гуртом - субтитрування
Відео Гуртом - субтитрування


З нами з: 23.05.10
Востаннє: 09.12.16
Повідомлень: 2854

2012-02-11 22:58  
Гість написано:
Торрент оновлено! змінена укр-а звук. доріжка на більш якісну, додані анг-і субтитри
Але старий торент роздай, а то заново тягнути.
Anonymous 







2012-02-11 23:03  
TheMarlboro
я роздав, та й роздають ще

Sensetivity 
VIP


З нами з: 03.05.11
Востаннє: 03.01.13
Повідомлень: 2019

2012-02-11 23:58  
TheMarlboro написано:
Але старий торент роздай, а то заново тягнути.

я роздаю Happy

Anonymous 







2012-02-12 10:49  
=)
soleru 
Відео Гуртом - підтримка та поширення
Відео Гуртом - підтримка та поширення


З нами з: 06.10.11
Востаннє: 11.04.16
Повідомлень: 192

2012-02-13 00:23  
Класний фільм, Більшеб таких фільмів!!!
The_Marlboro 
Відео Гуртом - субтитрування
Відео Гуртом - субтитрування


З нами з: 23.05.10
Востаннє: 09.12.16
Повідомлень: 2854

2012-02-13 17:36  
постер

Vasyava 
VIP


З нами з: 25.04.10
Востаннє: 08.12.16
Повідомлень: 310

2012-02-27 02:46  
Сильне кіно.
Неочікував від Китаю,що можуть так зняти

Переклад і озвучування від ТО "Цікава Ідея" також,дуже сподобалось

bot 
робот


З нами з: 30.09.07
Востаннє: 26.05.05
Повідомлень: 16050

2012-09-21 14:12  
Тему перенесено з Фільми в HD до форуму Неоформлене відео


urij546724

hellforces 
VIP


З нами з: 25.06.08
Востаннє: 11.11.16
Повідомлень: 1556

2013-03-03 21:26  
круте кіно 9\10
waldi-hurtom 
VIP


З нами з: 07.10.12
Востаннє: 09.12.16
Повідомлень: 613

2013-07-30 07:50  
Не вразив фільм. Тхне совдепією. 7/10.
lcds 
Свій


З нами з: 08.07.13
Востаннє: 02.12.16
Повідомлень: 111

2014-07-13 12:29  
Цікавий, майстерно відзнятий фільм. Дякую.
Lil`Antoni 
Поважний учасник


З нами з: 25.02.12
Востаннє: 09.12.16
Повідомлень: 206

2014-12-15 12:31  
Я не можу скачати, Sad (1), відновіть роздачу Happy
Хоч тут один є, але не роздається чомусь (

Lil`Antoni 
Поважний учасник


З нами з: 25.02.12
Востаннє: 09.12.16
Повідомлень: 206

2014-12-20 13:45  
Чудові частини, давно такого не дивився.
Дякую

Ваш часовий пояс: GMT + 2 Години

Нова тема   Відповісти