Завантажити та скачати торренти українською


Іп Мен / Yip Man / Ip Man (2008) 1080p Ukr/Chi | sub Eng

Нові коментарі

Нова тема   Відповісти
Автор Повідомлення
Andick 
Модератор відео та координатор поширення


З нами з: 03.11.09
Востаннє: 06.12.16
Повідомлень: 1499

2012-02-10 21:07  
Іп Мен / Yip Man / Ip Man (2008) 1080p Ukr/Chi | sub Eng

Іп Мен / Yip Man / Ip Man (2008) 1080p Ukr/Chi | sub Eng

Інші постери


Жанр: екшн, біографічний, драма, історичний
Країна: Гонконг, Китай

Top 250: #233

Кіностудія / кінокомпанія: Beijing ShengShi HuaRei Film Investment & Management Co., China Film Co-Production Corporation, Mandarin Films Distribution Co.
Режисер: Вілсон Іп / Wilson Yip
Актори: Донні Єн / Donnie Yen, Саймон Ям / Simon Yam, Сю-Вонг Фан / Siu-Wong Fan, Ка Тунг Лам / Ka Tung Lam, Ю Хін / Yu Xing, Ю-Нам Вонг / You-Nam Wong, Чен Зі Хуі / Chen Zhi Hui, та інші.

Сюжет:
Іп Ман - визнаний майстер кунг фу, що живе в Фуошане, місті, славному своїми школами бойових мистецтв. Іп Ман практикує Він Чун і хоч і є найсильнішим бійцем міста, своєї школи у нього немає, і він не бере учнів. Вдома він проводить лише легкі спаринги з приятелями, щоб вказати на помилки один одного. Проходять роки, Китай захоплюють войовничі японці, і Іп Ман виявляється одним з небагатьох, хто навіть в жорстоких умовах окупації не забуває про честь, гідність і, звичайно ж, мудрість, яку несе в собі кунг фу.

Ріп від HiDt

Тривалість: 01:46:21
Якість:
Відео:
кодек:
розмір кадру: 1920 х 820
бітрейт: 12,1 Мб/с

Аудіо # 1:
мова: українська
переклад: багатоголосий закадровий
кодек: 5.1
бітрейт: 640 кб/с

Аудіо # 2:
мова: китайська
переклад: оригінал
кодек: 5.1
бітрейт: 640 кб/с

Переклад і озвучення виконано:
ТО "Цікава Ідея" на замовлення Hurtom.com

Субтитри:
мова: англійська
тип: програмні (м'які)
формат: *.srt
MediaInfo
General
Unique ID : 190935346385126648384237998077033918993 (0x8FA4CF630249945199964AE2B7D53211)
Complete name : H:\Ip.Man.2008.1080p.BluRay.-HiDt\Yip Man (2008) [ukr,chi] 1080p [Hurtom].mkv
Format : Matroska
File size : 9.97 GiB
Duration : 1h 46mn
Overall bit rate : 13.4 Mbps
Movie name : Іп Мен / Yip Man / Ip Man (2008) 1080p
Encoded date : UTC 2012-02-10 18:51:20
Writing application : mkvmerge v5.2.1 ('A Far Off Place') built on Jan 2 2012 23:21:10
Writing library : libebml v1.2.3 + libmatroska v1.3.0

Video
ID : 1
Format : AVC
Format/Info : Advanced Video Codec
Format profile : [email protected]
Format settings, CABAC : Yes
Format settings, ReFrames : 4 frames
Codec ID : V_MPEG4/ISO/AVC
Duration : 1h 46mn
Bit rate : 12.1 Mbps
Width : 1 920 pixels
Height : 820 pixels
Display aspect ratio : 2.35:1
Frame rate : 24.000 fps
Color space : YUV
Chroma subsampling : 4:2:0
Bit depth : 8 bits
Scan type : Progressive
Bits/(Pixel*Frame) : 0.321
Stream size : 8.82 GiB (88%)
Title : Ріп від HiDt
Writing library : core 120 r2146 bcd41db
Encoding settings : cabac=1 / ref=4 / deblock=1:-3:-3 / analyse=0x3:0x113 / me=tesa / subme=11 / psy=1 / psy_rd=1.30:0.00 / mixed_ref=1 / me_range=32 / chroma_me=1 / trellis=2 / 8x8dct=1 / cqm=0 / deadzone=21,11 / fast_pskip=0 / chroma_qp_offset=-2 / threads=12 / sliced_threads=0 / nr=0 / decimate=1 / interlaced=0 / bluray_compat=0 / constrained_intra=0 / bframes=6 / b_pyramid=2 / b_adapt=2 / b_bias=0 / direct=3 / weightb=1 / open_gop=0 / weightp=2 / keyint=240 / keyint_min=24 / scenecut=40 / intra_refresh=0 / rc_lookahead=80 / rc=2pass / mbtree=1 / bitrate=12145 / ratetol=1.0 / qcomp=0.60 / qpmin=0 / qpmax=69 / qpstep=4 / cplxblur=20.0 / qblur=0.5 / vbv_maxrate=45000 / vbv_bufsize=43000 / nal_hrd=none / ip_ratio=1.40 / aq=1:0.80 / zones=148765,153146,b=0.1
Language : English

Audio #1
ID : 2
Format : AC-3
Format/Info : Audio Coding 3
Mode extension : CM (complete main)
Codec ID : A_AC3
Duration : 1h 46mn
Bit rate mode : Constant
Bit rate : 640 Kbps
Channel(s) : 6 channels
Channel positions : Front: L C R, Side: L R, LFE
Sampling rate : 48.0 KHz
Bit depth : 16 bits
Compression mode : Lossy
Stream size : 487 MiB (5%)
Title : ТО "Цікава Ідея" на замовлення Hurtom.com
Language : Ukrainian

Audio #2
ID : 3
Format : AC-3
Format/Info : Audio Coding 3
Mode extension : CM (complete main)
Codec ID : A_AC3
Duration : 1h 46mn
Bit rate mode : Constant
Bit rate : 640 Kbps
Channel(s) : 6 channels
Channel positions : Front: L C R, Side: L R, LFE
Sampling rate : 48.0 KHz
Bit depth : 16 bits
Compression mode : Lossy
Stream size : 487 MiB (5%)
Title : DD 5.1
Language : Chinese

Text
ID : 4
Format : UTF-8
Codec ID : S_TEXT/UTF8
Codec ID/Info : UTF-8 Plain Text
Language : English

Menu
00:00:00.000 : en:Chapter 01
00:07:37.375 : en:Chapter 02
00:14:42.000 : en:Chapter 03
00:21:25.750 : en:Chapter 04
00:28:08.541 : en:Chapter 05
00:34:52.916 : en:Chapter 06
00:42:25.333 : en:Chapter 07
00:47:35.000 : en:Chapter 08
00:56:07.291 : en:Chapter 09
01:03:31.416 : en:Chapter 10
01:11:03.208 : en:Chapter 11
01:18:32.500 : en:Chapter 12
01:25:53.875 : en:Chapter 13
01:34:11.416 : en:Chapter 14
01:41:23.250 : en:Chapter 15
Скріншоти





Переклад і озвучування здійснено в рамках сервісу "Озвучення"
Медіапартнер

Подяка bilenkuyboy за українізовані постери

Джерело:
Особиста оцінка: 10 - без зайвих вагань рекомендую всім![/img]


Авторський реліз (завантажувати можна без реєстрації)
 Трекер:    Зареєстрований   

Завантажити / скачати фільм українською



відео для новачків



 Зареєстрований:   2012-02-10 21:07
 Розмір:   9.97 GB 
 Оцінка фільму:   8.8/10 (Голосів: 21)
   
Інші релізи
   Іп Мен / Yip Man / Ip Man (2008) 720p-mini Ukr/Chi | Sub Eng Anonymous  5 / 0   3.02 GB   2012-02-11 22:49 
   Іп Мен / Yip Man / Ip Man (2008) 720p Ukr/Chi | sub Eng DiGen  2 / 1   5.85 GB   2012-02-11 03:46 
   Іп Мен / Yip Man / Ip Man (2008) Remux Ukr/Chi | sub Eng/Chi Andick  0 / 1   22.17 GB   2012-02-11 00:44 
   Іп Мен / Yip Man / Ip Man (2008) Цікава ідея  15 / 0   1.45 GB   2012-02-10 20:23 
chaoscor 
Свій


З нами з: 17.10.10
Востаннє: 03.12.16
Повідомлень: 73

2012-02-12 10:39  
Переглядали фільм і жодного разу не звернули увагу на озвучку.
Висновок - дуже якісно і гармонійно озвучено.

Гадаю, нема потреби який раз високо оцінювати сам фільм (10 з 10-и).

okzdp 
Поважний учасник


З нами з: 27.05.09
Востаннє: 09.12.16
Повідомлень: 209

2012-02-13 21:32  
Класний фільм

Додано через 2 хвилини 47 секунд:

2 частина буде?

Шейнога Станіслав 
Поважний учасник


З нами з: 16.09.11
Востаннє: 03.12.16
Повідомлень: 176

2012-02-15 18:09  
До речі, спілкуючись із китайцями з приводу цього фільму, дізнася, що
й зараз у Китаї ходять повсюди такі комісари, як у фільмі, і сунуть свого
носа в усі справи. От вам і комуністична система.

Alex-Rus 
Частий відвідувач


З нами з: 20.08.12
Востаннє: 19.06.14
Повідомлень: 47

2012-11-05 07:14  
Дякую!
Відносно давно (як з'являлися тільки) дивився у рос.перекладі (на болванях давно є обидві відомі мені частини, нажаль все ориг/англ+рос).
Тепер, нарешті, заціную укр. переклад! Wink (1)

bambulla 
Відео Гуртом - запис з ТБ
Відео Гуртом - запис з ТБ


З нами з: 05.06.12
Востаннє: 09.12.16
Повідомлень: 67

2016-07-19 15:18  
Роздають п'ять,а роздається в когось одного,я вже п'ятий день качаю,задовбався вже чекати.Станьте хтось на роздачу.
Ваш часовий пояс: GMT + 2 Години

Нова тема   Відповісти