Доріан Грей / Dorian Gray (2009) 720p Ukr/Eng | Sub Eng

Нові коментарі

Нова тема   Відповісти
Автор Повідомлення
braveboy 
Відео Гуртом - команда HD
Відео Гуртом - команда HD


З нами з: 15.06.10
Востаннє: 17.01.17
Повідомлень: 958

2012-02-10 02:56  
Доріан Грей / Dorian Gray (2009) 720p Ukr/Eng | Sub Eng

Доріан Грей / Dorian Gray (2009) 720p Ukr/Eng | Sub Eng

«Молодий назавжди. Проклятий навіки ».

Жанр: драма, трилер , фантастика
Країна: Великобританія




Кіностудія / кінокомпанія: Fragile Films
Режисер: Олівер Паркер
Актори: Колін Ферт, Бен Барнс, Рейчел Херд-Вуд, Ребекка Холл, Бен Чаплін


Сюжет:
Молодий і неймовірно красивий Доріан Грей приїжджає до Лондона і потрапляє під вплив шукача пригод лорда Уоттона. Він переконав хлопця, що секрет успіху і щастя Доріана — в його красі, адже вона допоможе отримати всі задоволення світу. Доріан укладає угоду з Дияволом. Хлопець замовляє свій портрет, і тепер весь бруд його життя, повного розпусти і злочинних пристрастей, бруднитиме і псуватиме полотно, його ж власне обличчя залишиться вічно юним і прекрасним.



Тривалість: 01:52:17
Якість: 720p
Відео:
кодек:
розмір кадру: 1280 x 720
бітрейт: 4363 кб/с

Аудіо # 1:
мова: українська
переклад: професійний дубльований
кодек: 5.1
бітрейт: 448 кб/с

Аудіо # 2:
мова: англійська
переклад: оригінал
кодек: 5.1
бітрейт: 768 кб/с

Джерело озвучення:


Субтитри:
мова: англійська
тип: програмні (м'які)
формат: *.srt

Доріан Грей / Dorian Gray (2009) 720p Ukr/Eng | Sub Eng
log

[info]: frame I:1517 Avg QP:11.59 size:144898
[info]: frame P:35431 Avg QP:14.02 size: 47572
[info]: frame B:124750 Avg QP:16.76 size: 14165
[info]: consecutive B-frames: 2.6% 1.7% 5.7% 22.8% 17.4% 49.8%
[info]: mb I I16..4: 9.4% 73.0% 17.6%
[info]: mb P I16..4: 3.2% 11.3% 1.8% P16..4: 32.6% 23.9% 15.9% 2.0% 0.7% skip: 8.6%
[info]: mb B I16..4: 0.3% 1.2% 0.2% B16..8: 38.7% 13.4% 3.2% direct: 4.7% skip:38.2% L0:44.9% L1:43.4% BI:11.6%
[info]: 8x8 transform intra:70.0% inter:66.1%
[info]: coded y,uvDC,uvAC intra: 78.0% 86.5% 68.1% inter: 27.4% 26.5% 4.1%
[info]: i16 v,h,dc,p: 65% 8% 7% 20%
[info]: i8 v,h,dc,ddl,ddr,vr,hd,vl,hu: 13% 7% 10% 9% 12% 13% 11% 12% 12%
[info]: i4 v,h,dc,ddl,ddr,vr,hd,vl,hu: 11% 6% 5% 10% 16% 16% 12% 13% 12%
[info]: i8c dc,h,v,p: 52% 17% 18% 13%
[info]: Weighted P-Frames: Y:3.2% UV:1.1%
[info]: ref P L0: 48.9% 7.9% 21.5% 8.6% 7.4% 5.3% 0.4% 0.0%
[info]: ref B L0: 73.5% 15.5% 7.4% 2.7% 1.0%
[info]: ref B L1: 92.0% 8.0%
[info]: kb/s:4360.66
MediaInfo
General
Unique ID : 227272037947737912172813793629125380720 (0xAAFB009963D8CC02B3CC80B202AE8A70)
Complete name : E:\Temp\Dorian Gray (2009) [Ukr,Eng Sub Eng] 720p [HURTOM] by braveboy.mkv
Format : Matroska
Format version : Version 2
File size : 4.36 GiB
Duration : 1h 52mn
Overall bit rate : 5 564 Kbps
Movie name : Dorian Gray (2009) 720p by braveboy
Encoded date : UTC 2012-02-10 00:20:01
Writing application : mkvmerge v5.0.1 ('Es ist Sommer') built on Oct 9 2011 11:55:43
Writing library : libebml v1.2.2 + libmatroska v1.3.0

Video
ID : 1
Format : AVC
Format/Info : Advanced Video Codec
Format profile : [email protected]
Format settings, CABAC : Yes
Format settings, ReFrames : 6 frames
Codec ID : V_MPEG4/ISO/AVC
Duration : 1h 52mn
Bit rate : 4 363 Kbps
Width : 1 280 pixels
Height : 720 pixels
Display aspect ratio : 16:9
Frame rate : 24.000 fps
Color space : YUV
Chroma subsampling : 4:2:0
Bit depth : 8 bits
Scan type : Progressive
Bits/(Pixel*Frame) : 0.197
Stream size : 3.33 GiB (76%)
Title : Dorian Gray (2009) 720p by braveboy
Writing library : core 120 r2120 0c7dab9
Encoding settings : cabac=1 / ref=6 / deblock=1:-3:-3 / analyse=0x3:0x133 / me=umh / subme=9 / psy=1 / psy_rd=0.80:0.00 / mixed_ref=1 / me_range=32 / chroma_me=1 / trellis=1 / 8x8dct=1 / cqm=0 / deadzone=21,11 / fast_pskip=0 / chroma_qp_offset=-2 / threads=6 / sliced_threads=0 / nr=0 / decimate=1 / interlaced=0 / bluray_compat=0 / constrained_intra=0 / bframes=5 / b_pyramid=2 / b_adapt=2 / b_bias=0 / direct=1 / weightb=1 / open_gop=0 / weightp=2 / keyint=240 / keyint_min=24 / scenecut=40 / intra_refresh=0 / rc_lookahead=40 / rc=2pass / mbtree=1 / bitrate=4363 / ratetol=1.0 / qcomp=0.60 / qpmin=0 / qpmax=69 / qpstep=4 / cplxblur=20.0 / qblur=0.5 / ip_ratio=1.40 / aq=1:1.00
Default : Yes
Forced : No

Audio #1
ID : 2
Format : AC-3
Format/Info : Audio Coding 3
Mode extension : CM (complete main)
Codec ID : A_AC3
Duration : 1h 52mn
Bit rate mode : Constant
Bit rate : 448 Kbps
Channel(s) : 6 channels
Channel positions : Front: L C R, Side: L R, LFE
Sampling rate : 48.0 KHz
Bit depth : 16 bits
Compression mode : Lossy
Stream size : 360 MiB (8%)
Title : 5.1 @ 448 kbps
Language : Ukrainian
Default : Yes
Forced : No

Audio #2
ID : 3
Format :
Format/Info : Digital Theater Systems
Codec ID : A_DTS
Duration : 1h 52mn
Bit rate mode : Constant
Bit rate : 755 Kbps
Channel(s) : 6 channels
Channel positions : Front: L C R, Side: L R, LFE
Sampling rate : 48.0 KHz
Bit depth : 24 bits
Compression mode : Lossy
Stream size : 606 MiB (14%)
Title : 5.1 @ 768 kbps
Language : English
Default : No
Forced : No

Text
ID : 4
Format : UTF-8
Codec ID : S_TEXT/UTF8
Codec ID/Info : UTF-8 Plain Text
Title : Full
Language : English
Default : No
Forced : No
Скріншоти









720p by braveboy
Цитата:

* Source: Dorian Gray (2009) BD-Remux 1080p

Особиста оцінка: 10 - без зайвих вагань рекомендую всім!
Користувачам ОС Windows рекомендується переглядати через Media Player Classic або VLC
Для того щоб видалити непотрібну доріжку чи субтитри користуємось програмою MKVtoolnix інструкція тут



Фріліч (завантажене не впливає на рейтинг)
 Трекер:    Зареєстрований   

Завантажити фільм українською



відео для новачків



 Зареєстрований:   2012-02-10 02:56
 Розмір:   4.36 GB 
 Оцінка фільму:   9.4/10 (Голосів: 27)
   
Інші релізи
   Доріан Грей / Dorian Gray (2009) [640x360] DmitryA  1 / 0   984 MB   2015-08-03 18:57 
   Доріан Грей / Dorian Gray (2009) Ukr/Eng braveboy  9 / 0   1.99 GB   2010-11-06 22:51 
   Доріан Грей / Dorian Gray (2009) antik_2008  1 / 0   1.7 GB   2010-03-02 02:48 
   Доріан Грей / Dorian Gray (2009) DVD9 Ukr/Rus | Ліцензія antik_2008  2 / 0   7.47 GB   2010-03-01 23:59 
Sensetivity 
VIP


З нами з: 03.05.11
Востаннє: 03.01.13
Повідомлень: 2019

2012-02-10 10:53  
Цитата:
Великобритания

:\

braveboy 
Відео Гуртом - команда HD
Відео Гуртом - команда HD


З нами з: 15.06.10
Востаннє: 17.01.17
Повідомлень: 958

2012-02-10 14:27  
Sensetivity написано:
Великобритания

дякую виправив

Virake 
Localize Team
Localize Team


З нами з: 07.07.09
Востаннє: 19.01.17
Повідомлень: 4132

2012-02-10 15:48  
повністю згоден з оцінкою релізера. фільм - шедевр. от тільки питання: тут нормальний звук? коли я останнього разу вантажив цей фільм, там звук був сильно пошкоджений.
ratbol 
Модератор HD


З нами з: 03.02.09
Востаннє: 19.01.17
Повідомлень: 1088

2012-02-10 15:49  
А 1080п не планується?
Lan 
Відео Гуртом - фільмокрай
Відео Гуртом - фільмокрай


З нами з: 19.09.09
Востаннє: 19.01.17
Повідомлень: 625

2012-02-10 18:25  
Virake
Почитайте ось тут. Тут все та ж доріжка.

braveboy 
Відео Гуртом - команда HD
Відео Гуртом - команда HD


З нами з: 15.06.10
Востаннє: 17.01.17
Повідомлень: 958

2012-02-10 18:46  
ratbol написано:
А 1080п не планується?

no

leroykendall 
Модератор HD


З нами з: 03.01.11
Востаннє: 11.01.17
Повідомлень: 749

2012-02-11 19:30  
За правилами http://toloka.to/t20052:
DiGen написано:
5. Якщо викладається реліз, в якому міститься відео, що особисто зроблене, то має бути ще додано:
- світлини під спойлером з порівнянням з джерелом, які розташовуються покадрово по вертикалі - оригінал vs. власне.

Додай, будь ласка.

braveboy 
Відео Гуртом - команда HD
Відео Гуртом - команда HD


З нами з: 15.06.10
Востаннє: 17.01.17
Повідомлень: 958

2012-02-12 02:22  
leroykendall написано:

За правилами http://toloka.to/t20052:
DiGen написано:
5. Якщо викладається реліз, в якому міститься відео, що особисто зроблене, то має бути ще додано:
- світлини під спойлером з порівнянням з джерелом, які розташовуються покадрово по вертикалі - оригінал vs. власне.

Додай, будь ласка.


Source вже видалив

kolomyja 
Частий відвідувач


З нами з: 27.01.11
Востаннє: 19.01.17
Повідомлень: 42

2012-02-12 21:08  
Фільм супер,озвучка класна-ДИВИТИСЯ БЕЗ РОЗДУМІВ
leroykendall 
Модератор HD


З нами з: 03.01.11
Востаннє: 11.01.17
Повідомлень: 749

2012-02-12 21:13  
braveboy написано:
Source вже видалив

Цього разу - гаразд. Але наступного цього не буде. Правила - є правила.

taras1994 
Почесний оцифрувальник літератури


З нами з: 23.03.12
Востаннє: 30.11.16
Повідомлень: 5096

2013-01-09 19:47  
В мене запитання чому написно: Грей, якщо насправді він Ґрей?
braveboy 
Відео Гуртом - команда HD
Відео Гуртом - команда HD


З нами з: 15.06.10
Востаннє: 17.01.17
Повідомлень: 958

2013-01-09 20:10  
taras1994 написано:
В мене запитання чому написно: Грей, якщо насправді він Ґрей?

а може Гей Vampire-like teeth

taras1994 
Почесний оцифрувальник літератури


З нами з: 23.03.12
Востаннє: 30.11.16
Повідомлень: 5096

2013-01-09 20:30  
braveboy
Точно не гей, питання полягає в тому що є літературний переклад Вайлд О. Портрет Доріана Ґрея (2012) [djvu] | Оцифровано Гуртом, але чи доречно його застосовувати до назви фільму?

Віктор 
Відео Гуртом - субтитрування
Відео Гуртом - субтитрування


З нами з: 09.01.10
Востаннє: 19.01.17
Повідомлень: 8679

2013-01-09 20:36  
taras1994 написано:
але чи доречно його застосовувати до назви фільму?

Для наших проросійських прокатників та мейджорів, правила або традиції української мови порожній звук, узяти хоча б Гобіта.

Ваш часовий пояс: GMT + 2 Години

Нова тема   Відповісти