Завантажити та скачати торренти українською


Неймовірна доля Амелі Пулен / Le Fabuleux destin d'Amelie Poulain (2001) 1080p Ukr/Fre | Sub Eng/Fre

Нові коментарі

Нова тема   Відповісти
Автор Повідомлення
ratbol 
Модератор HD


З нами з: 03.02.09
Востаннє: 01.12.16
Повідомлень: 1088

2012-02-09 15:54  
Неймовірна доля Амелі Пулен / Le Fabuleux destin d'Amelie Poulain (2001) 1080p Ukr/Fre | Sub Eng/Fre

Неймовірна доля Амелі Пулен / Le Fabuleux destin d'Amelie Poulain (2001) 1080p Ukr/Fre | Sub Eng/Fre


Жанр: Комедія, Мелодрама
Країна: Франція, Німеччина



Кіностудія / кінокомпанія: Claudie Ossard Productions, Union Générale Cinématographique (UGC), Victoires Productions
Режисер: Жан-П'єрр Жене
Актори: Одрі Тоту, Матьє Кассовіц, Рюфюс, Іоланда Моро, Ізабель Нанті, Моріс Бенішу, Домінік Піньон та інші
Вікові обмеження: 16+

Сюжет:
Чи знаєте ви, що всі події, що відбуваються в нашому світі, навіть найбільш незначні, взаємозв'язані найдивовижнішим і чудернацьким чином?
Як політ крихітної мухи може викликати десь далеко могутній ураган, так і дивні, і на перший погляд, незрозумілі вчинки тихої і самотньої дівчини, що живе в світі своїх фантазій, можуть назавжди змінити життя абсолютно різних людей, подарувавши їм щастя і розфарбувавши навколишній світ яскравими, запаморочливими фарбами. Цю дівчину звуть Амелі Пулен.


Тривалість: 02:01:35
Якість: 1080p
Відео:
кодек:
розмір кадру: 1920 х 818
бітрейт: 15.5 Мб/с

Аудіо # 1:
мова: українська
переклад: багатоголосий закадровий | Новий канал
кодек: 5.1
бітрейт: 384 кб/с

Аудіо # 2:
мова: французька
переклад: оригінал
кодек: 5.1
бітрейт: 1536 кб/с

Субтитри:
мова: українська (до моменту без перекладу), англійська, французька
тип: програмні (м'які)
формат: *.srt

Оригінальні розділи:
Збережено

MediaInfo
General
Unique ID : 174312928446831536050845995437660311135 (0x832372E86BB23166825B3D70E6E00E5F)
Complete name : E:\Алемі готові до релізу\Неймовірна доля Амелі Пулен [Le Fabuleux destin d'Amelie Poulain] (2001) 1080p [Hurtom].mkv
Format : Matroska
Format version : Version 2
File size : 14.8 GiB
Duration : 2h 1mn
Overall bit rate : 17.4 Mbps
Encoded date : UTC 2012-02-09 12:52:30
Writing application : mkvmerge v3.2.0 ('Beginnings') built on Feb 12 2010 16:46:17
Writing library : libebml v0.7.9 + libmatroska v0.8.1
Attachment : Yes / Yes / Yes / Yes / Yes

Video
ID : 1
Format : AVC
Format/Info : Advanced Video Codec
Format profile : [email protected]
Format settings, CABAC : Yes
Format settings, ReFrames : 5 frames
Codec ID : V_MPEG4/ISO/AVC
Duration : 2h 1mn
Bit rate : 15.5 Mbps
Width : 1 920 pixels
Height : 818 pixels
Display aspect ratio : 2.35:1
Frame rate : 23.976 fps
Color space : YUV
Chroma subsampling : 4:2:0
Bit depth : 8 bits
Scan type : Progressive
Bits/(Pixel*Frame) : 0.412
Stream size : 12.9 GiB (87%)
Writing library : core 119 r2106 07efeb4
Encoding settings : cabac=1 / ref=5 / deblock=1:-3:-3 / analyse=0x3:0x133 / me=tesa / subme=10 / psy=1 / psy_rd=1.10:0.05 / mixed_ref=1 / me_range=48 / chroma_me=1 / trellis=2 / 8x8dct=1 / cqm=0 / deadzone=21,11 / fast_pskip=0 / chroma_qp_offset=-3 / threads=15 / sliced_threads=0 / nr=0 / decimate=1 / interlaced=0 / bluray_compat=0 / constrained_intra=0 / bframes=10 / b_pyramid=2 / b_adapt=2 / b_bias=0 / direct=3 / weightb=1 / open_gop=0 / weightp=2 / keyint=250 / keyint_min=23 / scenecut=40 / intra_refresh=0 / rc_lookahead=60 / rc=2pass / mbtree=1 / bitrate=15500 / ratetol=1.0 / qcomp=0.70 / qpmin=0 / qpmax=69 / qpstep=4 / cplxblur=20.0 / qblur=0.5 / vbv_maxrate=40000 / vbv_bufsize=30000 / nal_hrd=none / ip_ratio=1.40 / aq=1:0.70
Language : English
Default : No
Forced : No

Audio #1
ID : 2
Format : AC-3
Format/Info : Audio Coding 3
Mode extension : CM (complete main)
Codec ID : A_AC3
Duration : 2h 1mn
Bit rate mode : Constant
Bit rate : 384 Kbps
Channel(s) : 6 channels
Channel positions : Front: L C R, Side: L R, LFE
Sampling rate : 48.0 KHz
Bit depth : 16 bits
Compression mode : Lossy
Stream size : 334 MiB (2%)
Title : 5.1, 384 Kbps - багатоголосий закадровий, Новий канал
Language : Ukrainian
Default : Yes
Forced : No

Audio #2
ID : 3
Format :
Format/Info : Digital Theater Systems
Codec ID : A_DTS
Duration : 2h 1mn
Bit rate mode : Constant
Bit rate : 1 510 Kbps
Channel(s) : 6 channels
Channel positions : Front: L C R, Side: L R, LFE
Sampling rate : 48.0 KHz
Bit depth : 16 bits
Compression mode : Lossy
Delay relative to video : 11ms
Stream size : 1.28 GiB (9%)
Title : 5.1, 1536 Kbps
Language : French
Default : No
Forced : No

Text #1
ID : 4
Format : UTF-8
Codec ID : S_TEXT/UTF8
Codec ID/Info : UTF-8 Plain Text
Title : до моменту без перекладу
Language : Ukrainian
Default : Yes
Forced : No

Text #2
ID : 5
Format : ASS
Codec ID : S_TEXT/ASS
Codec ID/Info : Advanced Sub Station Alpha
Compression mode : Lossless
Language : English
Default : No
Forced : No

Text #3
ID : 6
Format : UTF-8
Codec ID : S_TEXT/UTF8
Codec ID/Info : UTF-8 Plain Text
Language : French
Default : No
Forced : No

Menu
00:00:00.000 : en:Chapter 1
00:08:51.406 : en:Chapter 2
00:21:17.067 : en:Chapter 3
00:38:45.573 : en:Chapter 4
00:47:21.380 : en:Chapter 5
00:57:06.506 : en:Chapter 6
01:11:08.764 : en:Chapter 7
01:17:06.872 : en:Chapter 8
01:25:15.235 : en:Chapter 9
01:32:21.369 : en:Chapter 10
01:44:57.666 : en:Chapter 11
01:51:26.054 : en:Chapter 12
Скріншоти











Цитата:
За українську доріжку подяка Romario_O


Джерело: &


Срібний реліз (на рейтинг впливає 50% завантаженого)
 Трекер:    Зареєстрований   

Завантажити / скачати фільм українською



відео для новачків



 Зареєстрований:   2012-02-09 15:54
 Розмір:   14.76 GB 
 Оцінка фільму:   8.7/10 (Голосів: 14)
   
Ваш часовий пояс: GMT + 2 Години

Нова тема   Відповісти