Завантажити та скачати торренти українською


Любий Джон / Dear John (2010) 720p Ukr/Eng | Sub Eng

Нові коментарі

Нова тема   Відповісти
Автор Повідомлення
xfsthe 
Оцифрування книг Гуртом
Оцифрування книг Гуртом


З нами з: 13.02.11
Востаннє: 07.12.16
Повідомлень: 279

2012-02-09 01:57  
Любий Джон / Dear John (2010) 720p Ukr/Eng | Sub Eng

Любий Джон / Dear John (2010) 720p Ukr/Eng | Sub Eng


Жанр: воєнний, драма, мелодрама
Країна: США



Кіностудія / кінокомпанія: Relativity Media
Режисер: Ласс Халлстрем
Актори: Чаннінг Татум , Аманда Сейфрід , Генрі Томас , Річард Дженкінс , Скотт Портер

Сюжет:
Два тижні, повні щастя першого кохання і пізнання заборонених плодів, провели старшокласниця Саванна та солдат Джон Тайрі, що приїхав додому. Але час летить швидко — юний коханець вимушений повернутися на службу до Європи. Після трагедії 11 вересня 2001 року Джон вирішує присвятити своє життя службі в армії, порушивши обіцянку, яку дав Саванні, — повернутися і одружитися на ній. Дівчина пише Джону листи, але вони приходять все рідше і рідше.


Тривалість: 01:47:42
Якість: 720p
Відео:
кодек:
розмір кадру: 1280 x 534
бітрейт: 5 171 кб/с

Аудіо # 1:
мова: українська
переклад: багатоголосий закадровий
кодек: 2.0
бітрейт: 192 кб/с

Аудіо # 2:
мова: англійська
переклад: оригінал
кодек: 5.1
бітрейт: 640 кб/с

Джерело озвучення:


Субтитри:
мова: англійська
тип: програмні (м'які)
формат: *.srt
MediaInfo
General
Unique ID : 290351418744596843108674992226327911009 (0xDA6FA6305E7C42252E66A1C8CF7CDA61)
Complete name : /media/media/0_my_relises/Dear John (2010) [ukr,eng] sub[eng] 720p.mkv
Format : Matroska
Format version : Version 2
File size : 4.52 GiB
Duration : 1h 47mn
Overall bit rate : 6 005 Kbps
Movie name : Любий Джон (2010) 720p
Encoded date : UTC 2012-01-04 17:09:04
Writing application : mkvmerge v5.0.1 ('Es ist Sommer') built on Oct 13 2011 14:41:12
Writing library : libebml v1.2.2 + libmatroska v1.3.0

Video
ID : 1
Format : AVC
Format/Info : Advanced Video Codec
Format profile : [email protected]
Format settings, CABAC : Yes
Format settings, ReFrames : 7 frames
Codec ID : V_MPEG4/ISO/AVC
Duration : 1h 47mn
Bit rate : 5 171 Kbps
Width : 1 280 pixels
Height : 534 pixels
Display aspect ratio : 2.40:1
Frame rate : 23.976 fps
Color space : YUV
Chroma subsampling : 4:2:0
Bit depth : 8 bits
Scan type : Progressive
Bits/(Pixel*Frame) : 0.316
Stream size : 3.80 GiB (84%)
Title : Любий Джон (2010) 720p
Writing library : core 94 r1583 7608d73
Encoding settings : cabac=1 / ref=7 / deblock=1:-3:-3 / analyse=0x3:0x113 / me=tesa / subme=9 / psy=1 / psy_rd=0.80:0.00 / mixed_ref=1 / me_range=16 / chroma_me=1 / trellis=2 / 8x8dct=1 / cqm=0 / deadzone=21,11 / fast_pskip=0 / chroma_qp_offset=-2 / threads=12 / sliced_threads=0 / nr=0 / decimate=0 / interlaced=0 / constrained_intra=0 / bframes=8 / b_pyramid=2 / b_adapt=2 / b_bias=0 / direct=3 / weightb=1 / weightp=2 / keyint=250 / keyint_min=25 / scenecut=40 / intra_refresh=0 / rc=2pass / mbtree=0 / bitrate=5171 / ratetol=1.0 / qcomp=0.60 / qpmin=10 / qpmax=51 / qpstep=4 / cplxblur=20.0 / qblur=0.5 / ip_ratio=1.40 / pb_ratio=1.30 / aq=1:0.70
Language : English

Audio #1
ID : 2
Format : AC-3
Format/Info : Audio Coding 3
Mode extension : CM (complete main)
Codec ID : A_AC3
Duration : 1h 47mn
Bit rate mode : Constant
Bit rate : 192 Kbps
Channel(s) : 2 channels
Channel positions : Front: L R
Sampling rate : 48.0 KHz
Bit depth : 16 bits
Compression mode : Lossy
Stream size : 148 MiB (3%)
Title : 2.0 @ 192 кбіт/с
Language : Ukrainian

Audio #2
ID : 3
Format : AC-3
Format/Info : Audio Coding 3
Mode extension : CM (complete main)
Codec ID : A_AC3
Duration : 1h 47mn
Bit rate mode : Constant
Bit rate : 640 Kbps
Channel(s) : 6 channels
Channel positions : Front: L C R, Side: L R, LFE
Sampling rate : 48.0 KHz
Bit depth : 16 bits
Compression mode : Lossy
Stream size : 493 MiB (11%)
Title : 5.1 @ 640 кбіт/с
Language : English

Text
ID : 4
Format : UTF-8
Codec ID : S_TEXT/UTF8
Codec ID/Info : UTF-8 Plain Text
Language : English
Світлини:


Джерело: &
Особиста оцінка: 10 - без зайвих вагань рекомендую всім!

Подяка за запис звуку : akon111


 Трекер:    Зареєстрований   

Завантажити / скачати фільм українською



відео для новачків



 Зареєстрований:   2012-02-09 01:57
 Розмір:   4.52 GB 
 Оцінка фільму:   9.1/10 (Голосів: 27)
   
Інші релізи
   Любий Джон / Dear John (2010) patriot2305  3 / 0   1.31 GB   2013-07-05 18:33 
   Любий Джон / Dear John (2010) UKR/ENG antik_2008  5 / 0   2 GB   2012-01-04 17:22 
olek.moroz 
Частий відвідувач


З нами з: 11.11.09
Востаннє: 16.02.15
Повідомлень: 29

2012-02-09 02:39  
"...приїхав додому на побивку..." Бідний Джон, мало того що сержанти жити не дають, ще й дома б"ють. Мабуть приїхав на "побувку", від слова "бути"? Дякую.
ValTriK 
Поважний учасник


З нами з: 18.12.11
Востаннє: 16.11.16
Повідомлень: 238

2012-02-09 09:42  
а що в кінеатрах з дубляжем не показували чи ніхто не записав звуку?
kamateros 
Новенький


З нами з: 09.01.13
Востаннє: 28.06.16
Повідомлень: 7

2013-03-31 08:51  
дуже добрий,досить захоплюючий фільм.Вартий перегляду на всі 100 !
SHEVA1991 
Поважний учасник


З нами з: 29.11.12
Востаннє: 03.12.16
Повідомлень: 200

2016-10-13 21:39  
мабуть втрачений дубляж...
Ваш часовий пояс: GMT + 2 Години

Нова тема   Відповісти