Завантажити та скачати торренти українською


Зведи мене з розуму / Drive Me Crazy (1999) 720p Ukr/Eng | Sub Eng

Нові коментарі

Нова тема   Відповісти
Автор Повідомлення
xfsthe 
Оцифрування книг Гуртом
Оцифрування книг Гуртом


З нами з: 13.02.11
Востаннє: 01.12.16
Повідомлень: 279

2012-02-09 01:38  
Зведи мене з розуму / Drive Me Crazy (1999) 720p Ukr/Eng | Sub Eng

Зведи мене з розуму / Drive Me Crazy (1999) 720p Ukr/Eng | Sub Eng


Жанр: комедія, драма, романтичний
Країна: США



Кіностудія / кінокомпанія: Twentieth Century Fox Film Corporation, Amy Robinson Productions, Grand March Productions
Режисер: Джон Шультц
Актори: Мелісса Джоан Герт, Едріан Ґрен'єр, Кріс Парк, Елі Лартер, Марк Вебер, Ґабріель Карпентер та інші.

Сюжет:
Двоє старшокласників, Чейз і Ніколь, посварилися зі своїми коханими. Чейз ненавидить зразково-показові традиції, правила та устрій школи, підготовлюваної до столітнього ювілею, а Ніколь, навпаки, відповідає за організацію балу з нагоди цього ювілею, на який повинні з'явитися усі випускники і батьки. Для того, щоб Чейз міг повернути кохання своєї дівчини, а Ніколь піти на бал з баскетболістом Бреттом, вони починають зображувати пару і незабаром, несподівано для самих себе, закохуються один в одного.


Тривалість: 01:31:15
Якість: 720p
Відео:
кодек:
розмір кадру: 1280 x 694
бітрейт: 11,8 Mбіт/c

Аудіо # 1:
мова: українська
переклад: двоголосий закадровий
кодек: 5.1
бітрейт: 448 кб/с

Аудіо # 2:
мова: англійська
переклад: оригінал
кодек: 5.1
бітрейт: 640 кб/с

Джерело озвучення:


Субтитри:
мова: українська (до моментів без перекладу)
тип: програмні (м'які)
формат: *.srt

Субтитри:
мова: англійська
тип: програмні (м'які)
формат: *.srt
MediaInfo
General
Unique ID : 236397623910657534942489069306114032704 (0xB1D886B971B1F61C835DDE704A314440)
Complete name : /media/media/0_my_relises/Drive Me Crazy (1999) [ukr,eng] sub[eng] 720p.mkv
Format : Matroska
Format version : Version 2
File size : 8.24 GiB
Duration : 1h 31mn
Overall bit rate : 12.9 Mbps
Movie name : Зведи мене з розуму / Drive Me Crazy (1999) 720p
Encoded date : UTC 2012-02-08 18:18:50
Writing application : mkvmerge v5.0.1 ('Es ist Sommer') built on Oct 13 2011 14:41:12
Writing library : libebml v1.2.2 + libmatroska v1.3.0

Video
ID : 1
Format : AVC
Format/Info : Advanced Video Codec
Format profile : [email protected]
Format settings, CABAC : Yes
Format settings, ReFrames : 9 frames
Codec ID : V_MPEG4/ISO/AVC
Duration : 1h 31mn
Bit rate : 11.8 Mbps
Width : 1 280 pixels
Height : 694 pixels
Display aspect ratio : 16:9
Frame rate : 23.976 fps
Color space : YUV
Chroma subsampling : 4:2:0
Bit depth : 8 bits
Scan type : Progressive
Bits/(Pixel*Frame) : 0.556
Stream size : 7.38 GiB (90%)
Title : Зведи мене з розуму / Drive Me Crazy (1999) 720p
Writing library : core 120 r2145 748fe16
Encoding settings : cabac=1 / ref=9 / deblock=1:-3:-3 / analyse=0x3:0x133 / me=umh / subme=10 / psy=1 / psy_rd=1.00:0.10 / mixed_ref=1 / me_range=48 / chroma_me=1 / trellis=2 / 8x8dct=1 / cqm=0 / deadzone=21,11 / fast_pskip=0 / chroma_qp_offset=-3 / threads=12 / sliced_threads=0 / nr=0 / decimate=0 / interlaced=0 / bluray_compat=0 / constrained_intra=0 / bframes=6 / b_pyramid=2 / b_adapt=2 / b_bias=0 / direct=3 / weightb=1 / open_gop=0 / weightp=2 / keyint=360 / keyint_min=2 / scenecut=40 / intra_refresh=0 / rc_lookahead=60 / rc=2pass / mbtree=1 / bitrate=11835 / ratetol=1.0 / qcomp=0.70 / qpmin=0 / qpmax=69 / qpstep=4 / cplxblur=20.0 / qblur=0.5 / vbv_maxrate=50000 / vbv_bufsize=30000 / nal_hrd=none / ip_ratio=1.40 / aq=2:1.00
Language : English

Audio #1
ID : 2
Format : AC-3
Format/Info : Audio Coding 3
Mode extension : CM (complete main)
Codec ID : A_AC3
Duration : 1h 31mn
Bit rate mode : Constant
Bit rate : 448 Kbps
Channel(s) : 6 channels
Channel positions : Front: L C R, Side: L R, LFE
Sampling rate : 48.0 KHz
Bit depth : 16 bits
Compression mode : Lossy
Stream size : 292 MiB (3%)
Title : 5.1 @ 448 кбіт/с - Новий канал
Language : Ukrainian

Audio #2
ID : 3
Format : AC-3
Format/Info : Audio Coding 3
Mode extension : CM (complete main)
Codec ID : A_AC3
Duration : 1h 31mn
Bit rate mode : Constant
Bit rate : 640 Kbps
Channel(s) : 6 channels
Channel positions : Front: L C R, Side: L R, LFE
Sampling rate : 48.0 KHz
Bit depth : 16 bits
Compression mode : Lossy
Stream size : 418 MiB (5%)
Title : 5.1 @ 640 кбіт/с
Language : English

Text #1
ID : 4
Format : UTF-8
Codec ID : S_TEXT/UTF8
Codec ID/Info : UTF-8 Plain Text
Language : Ukrainian

Text #2
ID : 5
Format : UTF-8
Codec ID : S_TEXT/UTF8
Codec ID/Info : UTF-8 Plain Text
Title : SDH
Language : English
Світлини:


Джерело: &
Особиста оцінка: 0 - не дивився

За синхронізацію доріжки 5.1 подяка Lan,
за запис звуку з тб подяка Hulk1987


Срібний реліз (на рейтинг впливає 50% завантаженого)
 Трекер:    Зареєстрований   

Завантажити / скачати фільм українською



відео для новачків



 Зареєстрований:   2012-02-09 01:38
 Розмір:   8.24 GB 
 Оцінка фільму:   10/10 (Голосів: 1)
   
Інші релізи
   Зведи мене з розуму / Drive Me Crazy (1999) Віктор  2 / 0   1.45 GB   2012-02-02 21:36 
Ваш часовий пояс: GMT + 2 Години

Нова тема   Відповісти