Завантажити та скачати торренти українською


Червона планета / Red Planet (2000) 720p Ukr/Eng | Sub Eng

Нові коментарі

Нова тема   Відповісти
Автор Повідомлення
xfsthe 
Оцифрування книг Гуртом
Оцифрування книг Гуртом


З нами з: 13.02.11
Востаннє: 04.12.16
Повідомлень: 279

2012-02-09 01:28  
Червона планета / Red Planet (2000) 720p Ukr/Eng | Sub Eng

Червона планета / Red Planet (2000) 720p Ukr/Eng | Sub Eng


Жанр: трилер, фантастика, бойовик
Країна: США, Австралія



Кіностудія / кінокомпанія: Warner Bros. Pictures, Village Roadshow Pictures, NPV Entertainment
Режисер: Ентоні Гоффман
Актори: Вел Кілмер, Керрі-Енн Мосс, Том Сайзмор, Бенджамін Бретт, Саймон Бейкер, Теренс Стемп, Джессіка Мортон, Керолайн Боссі, Боб Нілл, Ніл Россі

Сюжет:
У 2056 році Земля знаходиться на межі екологічної катастрофи в результаті забруднення і перенаселення. Тим часом автоматичні міжпланетні зонди розкидали по Марсу водорості для виробництва кисню - перша стадія терраформування червоної планети. Через 12 років на Землі дізнаються, що рівень виробленого кисню нез'ясовно впав. Екіпажу корабля «Марс-1» належить не тільки стати першими людьми, які ступили на іншу планету, а й дізнатися причину збою, адже Марс залишається єдиною надією врятувати людство. Однак після піврічного польоту до мети, при самій посадці виникають проблеми. Тепер перед астронавтами стоїть питання - як полетіти з цієї планети.


Тривалість: 01:46:29
Якість: 720p
Відео:
кодек:
розмір кадру: 1280 x 534
бітрейт: 5 237 кб/с

Аудіо # 1:
мова: українська
переклад: двоголосий закадровий
кодек: 5.1
бітрейт: 384 кб/с

Аудіо # 2:
мова: англійська
переклад: оригінал
кодек: 5.1
бітрейт: 384 кб/с

Джерело озвучення:


Субтитри:
мова: англійська
тип: програмні (м'які)
формат: *.srt
MediaInfo

General
Unique ID : 268742297731077254036329694057663827256 (0xCA2DE24426249F59FD19A47A396C0D38)
Complete name : /media/media/0_my_relises/Red Planet (2000) [ukr,eng] sub[eng] 720p.mkv
Format : Matroska
Format version : Version 2
File size : 4.47 GiB
Duration : 1h 46mn
Overall bit rate : 6 005 Kbps
Movie name : Червона планета (2000) 720p
Encoded date : UTC 2012-02-09 07:01:38
Writing application : mkvmerge v5.0.1 ('Es ist Sommer') built on Oct 13 2011 14:41:12
Writing library : libebml v1.2.2 + libmatroska v1.3.0

Video
ID : 1
Format : AVC
Format/Info : Advanced Video Codec
Format profile : [email protected]
Format settings, CABAC : Yes
Format settings, ReFrames : 11 frames
Codec ID : V_MPEG4/ISO/AVC
Duration : 1h 46mn
Bit rate : 5 237 Kbps
Width : 1 280 pixels
Height : 534 pixels
Display aspect ratio : 2.40:1
Frame rate : 23.976 fps
Color space : YUV
Chroma subsampling : 4:2:0
Bit depth : 8 bits
Scan type : Progressive
Bits/(Pixel*Frame) : 0.320
Stream size : 3.81 GiB (85%)
Title : Червона планета (2000) 720p
Writing library : core 116 r2044 392e762
Encoding settings : cabac=1 / ref=11 / deblock=1:-3:-3 / analyse=0x3:0x133 / me=esa / subme=10 / psy=1 / psy_rd=1.10:0.10 / mixed_ref=1 / me_range=24 / chroma_me=1 / trellis=2 / 8x8dct=1 / cqm=0 / deadzone=21,11 / fast_pskip=0 / chroma_qp_offset=-3 / threads=12 / sliced_threads=0 / nr=0 / decimate=0 / interlaced=0 / bluray_compat=0 / constrained_intra=0 / bframes=8 / b_pyramid=2 / b_adapt=2 / b_bias=0 / direct=3 / weightb=1 / open_gop=0 / weightp=2 / keyint=250 / keyint_min=23 / scenecut=40 / intra_refresh=0 / rc_lookahead=60 / rc=2pass / mbtree=1 / bitrate=5237 / ratetol=1.0 / qcomp=0.60 / qpmin=0 / qpmax=69 / qpstep=4 / cplxblur=20.0 / qblur=0.5 / vbv_maxrate=50000 / vbv_bufsize=50000 / nal_hrd=none / ip_ratio=1.40 / aq=1:0.60
Language : English

Audio #1
ID : 2
Format : AC-3
Format/Info : Audio Coding 3
Mode extension : CM (complete main)
Codec ID : A_AC3
Duration : 1h 46mn
Bit rate mode : Constant
Bit rate : 384 Kbps
Channel(s) : 6 channels
Channel positions : Front: L C R, Side: L R, LFE
Sampling rate : 48.0 KHz
Bit depth : 16 bits
Compression mode : Lossy
Stream size : 292 MiB (6%)
Title : 5.1, 384 кбіт/с
Language : Ukrainian

Audio #2
ID : 3
Format : AC-3
Format/Info : Audio Coding 3
Mode extension : CM (complete main)
Codec ID : A_AC3
Duration : 1h 46mn
Bit rate mode : Constant
Bit rate : 384 Kbps
Channel(s) : 6 channels
Channel positions : Front: L C R, Side: L R, LFE
Sampling rate : 48.0 KHz
Bit depth : 16 bits
Compression mode : Lossy
Stream size : 292 MiB (6%)
Title : 5.1, 384 кбіт/с
Language : English

Text
ID : 4
Format : UTF-8
Codec ID : S_TEXT/UTF8
Codec ID/Info : UTF-8 Plain Text
Language : English
Світлини:


Джерело: &
Особиста оцінка: 8 - мені сподобалося

Звукова доріжка - з релізу пана Lan, за що я йому вдячний!
Основою для української звукової доріжки послужив повністю перероблений та позбавлений від шумів *.mp3 з іншого релізу цього фільму, за запис якого я вдячний пану Soyer.


Срібний реліз (на рейтинг впливає 50% завантаженого)
 Трекер:    Зареєстрований   

Завантажити / скачати фільм українською



відео для новачків



 Зареєстрований:   2012-02-09 13:44
 Розмір:   4.47 GB 
 Оцінка фільму:   8.4/10 (Голосів: 12)
   
Інші релізи
   Червона планета / Red Planet (2000) Remux 1080p Ukr/Eng | Sub Eng Alex60  0 / 0   16.48 GB   2015-10-12 20:05 
   Червона планета / Red Planet (2000) Ukr/Eng | Sub Eng Lan  5 / 0   2.18 GB   2011-12-01 13:24 
   Червона планета / Red Planet (2000) Ukr/Eng Anonymous  0 / 0   1.6 GB   2009-05-04 17:30 
Віктор 
Відео Гуртом - субтитрування
Відео Гуртом - субтитрування


З нами з: 09.01.10
Востаннє: 04.12.16
Повідомлень: 8663

2012-02-09 02:07  
xfsthe написано:
Muxing mode : Header stripping

Передемуксувати - http://toloka.to/t20052
3. Вимкнена функція Header stripping (* як це зробити http://toloka.to/t31095)

Віктор 
Відео Гуртом - субтитрування
Відео Гуртом - субтитрування


З нами з: 09.01.10
Востаннє: 04.12.16
Повідомлень: 8663

2012-02-09 13:51  
Дописати -
Lan написано:
Основою для української звукової доріжки послужив повністю перероблений та позбавлений від шумів *.mp3 з іншого релізу цього фільму, за запис якого я вдячний пану Soyer.

MrRyanCooper 
VIP


З нами з: 23.08.12
Востаннє: 03.12.16
Повідомлень: 280

2015-05-08 21:04  
Нещодавно по ICTV було з багатоголосою озвучкою, дивно, що не записали.
Bruce_Nolan 
Свій


З нами з: 17.06.14
Востаннє: 26.11.16
Повідомлень: 120

2016-01-18 18:50  
MrRyanCooper написано:
Нещодавно по ICTV було з багатоголосою озвучкою, дивно, що не записали.

Знову буде по ICTV, я буду просить людей, може запишуть.

MrRyanCooper 
VIP


З нами з: 23.08.12
Востаннє: 03.12.16
Повідомлень: 280

2016-01-19 11:19  
Bruce_Nolan написано:
Знову буде по ICTV, я буду просить людей, може запишуть.

Знаю, я вже писав у іншій роздачі, що проситиму людей записать. А хоча може бути, що така ж озвучка - 2-х голоса. Новий і ІСTV часто однакове пускають, рідко різне.

Ваш часовий пояс: GMT + 2 Години

Нова тема   Відповісти