Завантажити та скачати торренти українською


VA - Подільський альбом (2008) [FLAC] | Folk

Нові коментарі

Нова тема   Відповісти
Автор Повідомлення
gosha.samovar 
VIP


З нами з: 08.09.10
Востаннє: 04.12.16
Повідомлень: 400

2012-02-06 23:20  
VA - Подільський альбом (2008) [FLAC] | Folk

VA - Подільський альбом (2008) [FLAC] | Folk


Стиль: Folk
Країна, місто: Україна, Вінницька область
Видавець: "Агенція АртПоле", "Наш Формат"
Виконавці
Ансамбль "Берегиня" с. Борків Літинського р-ну Вінницької обл.:

Любов Михайлівна Парфенюк, 1965
Марія Абрамівна Войтко, 1934
Марія Степанівна Печериця, 1936
Ірина Никифорівна Чухмайстер, 1937
Ганна Семенівна Спридонюк, 1938
Тетяна Йосипівна Савіна, 1938
Євгенія Степанівна Андрушко, 1939
Наталя Петрівна Калінська, 1945
Марія Михайлівна Нечипорук (Сафрончик), 1951
Валентина Миколаївна Свічколап, 1965
Антоніна Афанасівна Донець, 1947
Євдокія Іванівна Мамот, 1939
Ніна Павлівна Купцова, 1939
Галина Калінська, 1983
Олена Нижник, 1983

Ансамбль "Чопова криниця" с. Гущинці Калинівського р-ну Вінницької обл.:

Олена Петрівна Богомолюк (Білаш), 1947
Любов Василівна Майданюк, 1937
Ганна Василівна Довгалюк, 1944
Віра Петрівна Мартинюк, 1945
Любов Андріївна Яцюк, 1946
Пелагея Іванівна Главацька, 1946
Михайліна Юхимівна Романюк, 1949
Галина Миколаївна Литвиненко, 1954

Ансамбль "Журавка" с. Павлівка Калинівського р-ну Вінницької обл.:

Катерина Андріївна Гуменчук, 1954
Ніна Іванівна Білоус, 1936
Валентина Микитівна Демчук, 1938
Ганна Іванівна Любчик, 1942
Ніна Степанівна Павлуник, 1942
Любов Яківна Криворучко, 1946
Валентина Михайлівнп Гунько, 1952
Надія Андріївна Вдовиченко, 1956
Юлія Данилівна Гуменчук, 1958
Ніна Андріївна Недопитанська, 1958
Ірина Петрівна Ковальчук, 1966

Ансамбль с. Переорки Вінницького р-ну Вінницької обл.:

Наталя Павлівна Новак, 1958
Катерина Григорівна Кучер, 1943
Ніна Степанівна Діденко, 1939
Марія Федорівна Діденко, 1930
Анастасія Андріївна Штербава, 1936
Галина Проніна, 1944

Ансамбль "Надвечір`я" с. Янів (Іванів) Калинівського р-ну Вінницької обл.:

Любов Миколаївна Кисляк, 1936
Ганна Миколаївна Висоцька, 1938
Марія Карпівна Дишкант, 1938
Ганна Дмитрівна Пашкевич, 1940
Ніна Прокопівна Гончарук, 1941
Ганна Миколаївна Воронюк, 1944
Пісні:
    01. В неділю рано до сходу сонця (колядка)
    02. Ой вечір добрий (щедрівка)
    03. Ой високо в синім небі (колядка)
    04. Під дубиною, під зеленою (колядка)
    05. Через наше село возили дерева (великодня)
    06. Святий Боже (псальма)
    07. Ой рано-рано три брати косять (великодня)
    08. На вигоні гусята (великодня)
    09. Ой у лісі, у лісочку (петрівка
    10. Ой летіла ластівонька (петрівка)
    11. Скакала жабка (петрівка)
    12. Іде парубок до дівки (весільна)
    13. До коси, братіку (весільні приспівки)
    14. Бувай здорова, товаришко (весільна)
    15. Не лякайся, свахо (весільні приспівки)
    16. Калина-малина ні сладка, ні горька (лірична)
    17. Суха береза в печі палала (лірична)
    18. Ой журавко, журавко (лірична)
    19. Посію я рожу (лірична)
    20. Ой ти, Ваня, Ваня (лірична)
    21. Ой у полі, в полі (лірична)
    22. Ой сяду я край стола (лірична)
    23. Да коло наших воріток (лірична)
    24. Ой у полі висока могила (лірична)
    25. Ой ти, Грицю, Грицю (лірична)
    26. Ой ви, гості мої (лірична)
EAC log
Exact Audio Copy V1.0 beta 3 from 29. August 2011

Отчёт EAC об извлечении, выполненном 6. февраля 2012, 10:58

Різні виконавці / Подільський альбом

Дисковод: PHILIPS SPD2519T Adapter: 2 ID: 0

Режим чтения : Достоверность
Использование точного потока : Да
Отключение кэша аудио : Да
Использование указателей C2 : Нет

Коррекция смещения при чтении : 6
Способность читать области Lead-in и Lead-out : Нет
Заполнение пропущенных сэмплов тишиной : Да
Удаление блоков с тишиной в начале и конце : Нет
При вычислениях CRC использовались нулевые сэмплы : Да
Интерфейс : Встроенный Win32-интерфейс для Win NT/2000

Выходной формат : Пользовательский кодировщик
Выбранный битрейт : 1024 kBit/s
Качество : Высокий
Добавление ID3-тега : Нет
Утилита сжатия : D:\soft_2\EAC\Exact Audio Copy\Flac\flac.exe
Дополнительные параметры : -V -8 -T "Date=%year%" -T "Genre=%genre%" %source%

TOC извлечённого CD

Трек | Старт | Длительность | Начальный сектор | Конечный сектор
---------------------------------------------------------------------
1 | 0:00.00 | 3:19.30 | 0 | 14954
2 | 3:19.30 | 4:56.47 | 14955 | 37201
3 | 8:16.02 | 2:51.45 | 37202 | 50071
4 | 11:07.47 | 1:54.69 | 50072 | 58690
5 | 13:02.41 | 4:06.42 | 58691 | 77182
6 | 17:09.08 | 4:11.11 | 77183 | 96018
7 | 21:20.19 | 7:19.63 | 96019 | 129006
8 | 28:40.07 | 4:11.42 | 129007 | 147873
9 | 32:51.49 | 0:48.19 | 147874 | 151492
10 | 33:39.68 | 1:24.55 | 151493 | 157847
11 | 35:04.48 | 1:16.20 | 157848 | 163567
12 | 36:20.68 | 0:44.33 | 163568 | 166900
13 | 37:05.26 | 2:30.62 | 166901 | 178212
14 | 39:36.13 | 1:07.59 | 178213 | 183296
15 | 40:43.72 | 2:47.27 | 183297 | 195848
16 | 43:31.24 | 3:35.71 | 195849 | 212044
17 | 47:07.20 | 2:47.30 | 212045 | 224599
18 | 49:54.50 | 3:59.62 | 224600 | 242586
19 | 53:54.37 | 3:32.66 | 242587 | 258552
20 | 57:27.28 | 1:47.22 | 258553 | 266599
21 | 59:14.50 | 3:17.31 | 266600 | 281405
22 | 62:32.06 | 4:52.54 | 281406 | 303359
23 | 67:24.60 | 2:33.13 | 303360 | 314847
24 | 69:57.73 | 2:17.03 | 314848 | 325125
25 | 72:15.01 | 3:17.47 | 325126 | 339947
26 | 75:32.48 | 3:09.27 | 339948 | 354149

Характеристики диапазона извлечения и сообщения об ошибках

Выбранный диапазон

Имя файла E:\Музіка!\from EAC\Різні виконавці - Подільський альбом.wav

Пиковый уровень 98.8 %
Скорость извлечения 6.8 X
Качество диапазона 99.9 %
CRC теста 64819977
CRC копии 64819977
Копирование... OK

Ошибок не произошло

AccurateRip: сводка

Трек 1 отсутствует в базе данных
Трек 2 отсутствует в базе данных
Трек 3 отсутствует в базе данных
Трек 4 отсутствует в базе данных
Трек 5 отсутствует в базе данных
Трек 6 отсутствует в базе данных
Трек 7 отсутствует в базе данных
Трек 8 отсутствует в базе данных
Трек 9 отсутствует в базе данных
Трек 10 отсутствует в базе данных
Трек 11 отсутствует в базе данных
Трек 12 отсутствует в базе данных
Трек 13 отсутствует в базе данных
Трек 14 отсутствует в базе данных
Трек 15 отсутствует в базе данных
Трек 16 отсутствует в базе данных
Трек 17 отсутствует в базе данных
Трек 18 отсутствует в базе данных
Трек 19 отсутствует в базе данных
Трек 20 отсутствует в базе данных
Трек 21 отсутствует в базе данных
Трек 22 отсутствует в базе данных
Трек 23 отсутствует в базе данных
Трек 24 отсутствует в базе данных
Трек 25 отсутствует в базе данных
Трек 26 отсутствует в базе данных

Ни одного трека нет в базе AccurateRip

Конец отчёта

==== Контрольная сумма отчёта 78F512B14DC1C61DE4C7A4095356FF4C4015698B1730DADCF2925DF47E414258 ====
Спектр
Тривалість: 01:18:42
Мова: українська
Аудіо-кодек: FLAC
Бітрейт: 742 кб/с
Джерело: власний ріп власного CD
Додаткова інформація
umka.com.ua:

Оскільки вже з самої назви цього диску все ясно щодо географічної приналежності записаних тут пісень, нам лишається ще уточнити лише пару деталей. Тематично альбом можна розділити на дві частини. Другу частину складають пісні ліричні. Першу – пісні календарно-обрядові, серед яких колядки, щедрівки, великодні, петрівчані. Плюс – кілька пісень весільного обряду. Поділля славиться не так великою складністю, як мелодійністю пісень – тож тут можна не тільки почути простір, а й відчути можливість почуте відтворити. Втім, і тут не без винятків. Крім того, зверніть увагу, що на збірці представлено автентичні колективи п’яти сіл Вінничини. Отже, дійсно можна скласти собі більш-менш об’ємне уявлення щодо особливостей подільського співу – і при цьому не виникає плутанини від надто великої кількості ансамблів. І, зрештою, далеко не всі польові записи, зроблені під час фольклорних експедицій, можуть похвалитися такою доброю якістю, як тут – це теж заслуговує на увагу.
Якщо Ви справді бажаєте підтримати українське - після прослуховування, якщо музика вам сподобалась, придбайте ліцензійний диск. Підтримаймо вітчизняних виконавців!


Срібний реліз (на рейтинг впливає 50% завантаженого)
 Трекер:    Зареєстрований   

Завантажити / скачати українську музику



відео для новачків



 Зареєстрований:   2012-02-06 23:20
 Розмір:   426 MB 
 Оцінка музики:   10/10 (Голосів: 6)
   
Віртуальний Дурник 
Новенький


З нами з: 06.08.10
Востаннє: 02.12.16
Повідомлень: 2

2016-12-02 14:18  
Купив ось диск у Нашому Форматі. Добрячі пісні.
А пісню "На вигоні гусята" гурт Фолькнери переробили на пісню "Карчата". Цікаво було почути оригінал після Фолькнерів.

Псальму "Святий Боже" чув на похороні на Житомирщині..

Ваш часовий пояс: GMT + 2 Години

Нова тема   Відповісти