Завантажити та скачати торренти українською


Невідомий / Unknown (2011) 1080p Ukr/Eng | Sub Eng

Нові коментарі

Нова тема   Відповісти
Автор Повідомлення
leroykendall 
Модератор HD


З нами з: 03.01.11
Востаннє: 20.11.16
Повідомлень: 749

2012-02-06 22:55  
Невідомий / Unknown (2011) 1080p Ukr/Eng | Sub Eng

Невідомий / Unknown (2011) 1080p Ukr/Eng | Sub Eng

«Take back your life.»


Жанр: драма, детектив, трилер
Країна: США






Кіностудія / кінокомпанія: Warner Bros. Pictures, Dark Castle Entertainment, Panda Productions Inc.
Режисер: Хаум Серра (Jaume Collet-Serra)
Актори: Лайам Нісон (Liam Neeson), Дайан Крюгер (Diane Kruger), Дженьюері Джонс (January Jones), Ейдан Куінн (Aidan Quinn), Бруно Ганц (Bruno Ganz), Френк Ланджелла (Frank Langella) та інші.

Сюжет:
Що може бути страшніше за втрату минулого і на що здатна людина заради свого майбутнього, коли сьогодення розсипається на очах?

Історія оповідає про чоловіка, який після пробудження від тривалої коми виявляє, що його особа присвоєна іншим, і розуміє, що ніхто, навіть власна дружина, не вірить йому. І тоді за допомогою незнайомої молодої жінки-таксистки герой прагне довести, хто він такий.


Тривалість: 01:53:11
Якість: 1080p (ріп від EbP)
Відео:
кодек:
розмір кадру: 1920 х 800
бітрейт: 10700 кб/с

Аудіо # 1:
мова: українська
переклад: професійний дубльований
кодек: 5.1
бітрейт: 384 кб/с

Аудіо # 2:
мова: англійська
переклад: оригінал
кодек: 5.1
бітрейт: 1536 кб/с

Джерело озвучення:
Фільм дубльовано Postmodern на замовлення дистриб'ютора “Кіноманія”

Субтитри:
мова: англійська
тип: програмні (м'які)
формат: *.srt

Збережені оригінальні чаптери як на Blu-ray.


Офіційний трейлер
MediaInfo
Код:
General
Complete name                    : V:\Unknown (2011) [Ukr, Eng] 1080p [Hurtom, rutracker] by leroykendall.mkv
Format                           : Matroska
File size                        : 10.2 GiB
Duration                         : 1h 53mn
Overall bit rate                 : 12.9 Mbps
Movie name                       : Unknown (2011) [Ukr, Eng] 1080p [Hurtom, rutracker] by leroykendall
Encoded date                     : UTC 2012-02-06 07:40:26
Writing application              : mkvmerge v4.9.1 ('Ich will') зібрано Jul 11 2011 23:53:15
Writing library                  : libebml v1.2.1 + libmatroska v1.1.1

Video
ID                               : 1
Format                           : AVC
Format/Info                      : Advanced Video Codec
Format profile                   : [email protected]
Format settings, CABAC           : Yes
Format settings, ReFrames        : 5 frames
Muxing mode                      : Container [email protected]
Codec ID                         : V_MPEG4/ISO/AVC
Duration                         : 1h 53mn
Bit rate                         : 10.7 Mbps
Nominal bit rate                 : 11.0 Mbps
Width                            : 1 920 pixels
Height                           : 800 pixels
Display aspect ratio             : 2.40:1
Frame rate                       : 23.976 fps
Resolution                       : 24 bits
Colorimetry                      : 4:2:0
Scan type                        : Progressive
Bits/(Pixel*Frame)               : 0.292
Stream size                      : 8.48 GiB (83%)
Title                            : Unknown (2011)
Writing library                  : core 115 r1995 c1e60b9
Encoding settings                : cabac=1 / ref=5 / deblock=1:-3:-3 / analyse=0x3:0x113 / me=tesa / subme=10 / psy=1 / psy_rd=1.00:0.00 / mixed_ref=1 / me_range=16 / chroma_me=1 / trellis=2 / 8x8dct=1 / cqm=0 / deadzone=21,11 / fast_pskip=0 / chroma_qp_offset=-2 / threads=6 / sliced_threads=0 / nr=0 / decimate=0 / interlaced=0 / bluray_compat=0 / constrained_intra=0 / bframes=7 / b_pyramid=2 / b_adapt=2 / b_bias=0 / direct=3 / weightb=1 / open_gop=0 / weightp=2 / keyint=250 / keyint_min=23 / scenecut=40 / intra_refresh=0 / rc=2pass / mbtree=0 / bitrate=11000 / ratetol=1.0 / qcomp=0.70 / qpmin=0 / qpmax=69 / qpstep=4 / cplxblur=20.0 / qblur=0.5 / ip_ratio=1.40 / pb_ratio=1.30 / aq=1:0.65

Audio #1
ID                               : 2
Format                           : AC-3
Format/Info                      : Audio Coding 3
Codec ID                         : A_AC3
Duration                         : 1h 53mn
Bit rate mode                    : Constant
Bit rate                         : 384 Kbps
Channel(s)                       : 6 channels
Channel positions                : Front: L C R, Surround: L R, LFE
Sampling rate                    : 48.0 KHz
Stream size                      : 311 MiB (3%)
Title                            : Дубляж UKR 5.1 @ 384 kbps Ліцензія R5
Language                         : Ukrainian

Audio #2
ID                               : 3
Format                           :
Format/Info                      : Digital Theater Systems
Codec ID                         : A_DTS
Duration                         : 1h 53mn
Bit rate mode                    : Constant
Bit rate                         : 1 510 Kbps
Channel(s)                       : 6 channels
Channel positions                : Front: L C R, Surround: L R, LFE
Sampling rate                    : 48.0 KHz
Resolution                       : 24 bits
Stream size                      : 1.19 GiB (12%)
Title                            : Оригінал 5.1 @ 1536 kbps

Text
ID                               : 4
Format                           : UTF-8
Codec ID                         : S_TEXT/UTF8
Codec ID/Info                    : UTF-8 Plain Text
Title                            : Субтитри

Menu
00:00:00.000                     : en:00:00:00.000
00:09:15.388                     : en:00:09:15.388
00:19:32.588                     : en:00:19:32.588
00:29:58.839                     : en:00:29:58.839
00:40:44.776                     : en:00:40:44.776
00:49:34.513                     : en:00:49:34.513
01:02:26.701                     : en:01:02:26.701
01:10:14.710                     : en:01:10:14.710
01:20:00.796                     : en:01:20:00.796
01:31:05.960                     : en:01:31:05.960
01:42:33.856                     : en:01:42:33.856
01:48:35.801                     : en:01:48:35.801


Скріншоти:






Джерело: &
Особиста оцінка: 7 - дуже непоганий триллер


 Трекер:    Зареєстрований   

Завантажити / скачати фільм українською



відео для новачків



 Зареєстрований:   2012-02-06 22:55
 Розмір:   10.19 GB 
 Оцінка фільму:   9.4/10 (Голосів: 27)
   
Інші релізи
   Невідомий / Unknown (2011) 2xUkr/Eng patriot2305  10 / 0   2.19 GB   2015-11-29 09:49 
   Невідомий / Unknown (2011) 720p Dim-ON  6 / 0   5.05 GB   2011-06-22 16:52 
   Невідомий / Unknown (2011) 720p-mini DejaVu  1 / 0   2.28 GB   2011-06-22 16:45 
   Невідомий / Unknown (2011) Ukr/Eng antik_2008  5 / 0   1.99 GB   2011-06-22 10:11 
MasterYura 
Відео Гуртом - фільмокрай
Відео Гуртом - фільмокрай


З нами з: 21.11.09
Востаннє: 03.12.16
Повідомлень: 927

2012-02-06 23:20  
класний фільм. 9/10
Leshchyshyn 
VIP


З нами з: 20.07.09
Востаннє: 02.12.16
Повідомлень: 470

2012-02-07 20:45  
Класний фільм!
leroykendall написано:
від тривалої коми

На скільки я пам'ятаю - то коми, й тим-паче тривалої, в головного персонажа не було, а лише травма голови...хоча можу й помилятись, давно дивився =)

Ваш часовий пояс: GMT + 2 Години

Нова тема   Відповісти