Завантажити та скачати торренти українською


VA - Кобзар. Нові акценти (2001) [FLAC] | Rock

Нові коментарі

Нова тема   Відповісти
Останній раз роздавалося bambulla (2016-12-05)
Автор Повідомлення
jinotot 
Почесний оцифрувальник літератури


З нами з: 28.01.09
Востаннє: 04.12.16
Повідомлень: 3235

2012-02-05 20:13  
VA - Кобзар. Нові акценти (2001) [FLAC] | Rock

VA - Кобзар. Нові акценти (2001) [FLAC] | Rock


Стиль: Rock
Країна, місто: Україна, Київ
Видавець: Видавництво Соломії Павличко "Основи", Студія "Sпати"
Виконавці:
Скрябін, Сергій Решетник, Андрій Середа, Андрій Кузьменко, Мертвий півень, Тарас Чубай, Нічлава, Кому Вниз, Ростислав Домішевський, Леся і Галя Тельнюк
Пісні:
    1. «Мені однаково…» — Скрябін
    2. «Гамалія» (уривок), «Єсть на світі доля…» (уривок з поеми «Катерина») — Сергій Решетняк
    3. «Не завидуй багатому…» — Андрій Середа, Не нарікаю я на Бога…" — Кому Вниз
    4. «Якось-то йдучи уночі…» — Андрій Кузьменко, «Садок вишневий коло хати…» — Мертвий півень
    5. «Кавказ» (уривки) — Тарас Чубай, «Ой по горі роман цвіте…» — Нічлава
    6. «Косар» — Андрій Середа, «Стоїть в селі Суботові…» (уривок з містерії «Великий льох») — Кому Вниз
    7. «Доля» — Ростислав Домішевський, «Не женися на багатій…» — Леся і Галя Тельнюк, «І тут, і всюди — скрізь погано…» — Андрій Середа

Тривалість: 00:30:37
Мова: українська
Аудіо-кодек: FLAC
Бітрейт: ~808 кб/с
Джерело: власний ріп
Додаткова інформація:
Українські рок-музиканти читають поезії Тараса Шевченка і виконують пісні на його вірші Happy
Обкладинки








Лоґ-файл
Exact Audio Copy V1.0 beta 3 from 29. August 2011

EAC extraction logfile from 5. February 2012, 17:23

- / Кобзар. Нові акценти

Used drive : ASUS DRW-20B1S Adapter: 0 ID: 0

Read mode : Secure
Utilize accurate stream : Yes
Defeat audio cache : Yes
Make use of C2 pointers : No

Read offset correction : 6
Overread into Lead-In and Lead-Out : No
Fill up missing offset samples with silence : Yes
Delete leading and trailing silent blocks : No
Null samples used in CRC calculations : Yes
Used interface : Native Win32 interface for Win NT & 2000

Used output format : Internal WAV Routines
Sample format : 44.100 Hz; 16 Bit; Stereo

TOC of the extracted CD

Track | Start | Length | Start sector | End sector
---------------------------------------------------------
1 | 0:00.00 | 1:37.69 | 0 | 7343
2 | 1:37.69 | 7:05.74 | 7344 | 39292
3 | 8:43.68 | 3:24.60 | 39293 | 54652
4 | 12:08.53 | 3:34.69 | 54653 | 70771
5 | 15:43.47 | 5:26.00 | 70772 | 95221
6 | 21:09.47 | 6:16.22 | 95222 | 123443
7 | 27:25.69 | 3:11.32 | 123444 | 137800

Range status and errors

Selected range

Filename C:\Users\ubuntu\Desktop\Kobzar\Кобзар. Нові акценти.wav

Peak level 96.6 %
Extraction speed 4.0 X
Range quality 100.0 %
Test CRC 50D8FC5B
Copy CRC 50D8FC5B
Copy OK

No errors occurred

AccurateRip summary

Track 1 not present in database
Track 2 not present in database
Track 3 not present in database
Track 4 not present in database
Track 5 not present in database
Track 6 not present in database
Track 7 not present in database

None of the tracks are present in the AccurateRip database

End of status report

---- CUETools DB Plugin V2.1.3

[CTDB TOCID: asaydFGQ0P6gxmv4bH4RICoBQuc-] found, Submit result: already submitted
[5a46f559] (1/1) Accurately ripped
Куе-файл
REM DATE 2001
REM DISCID 59072D07
REM COMMENT "ExactAudioCopy v1.0b3"
PERFORMER "Various Artists"
TITLE "Кобзар. Нові акценти"
FILE "Кобзар. Нові акценти (2001).flac" WAVE
TRACK 01 AUDIO
TITLE "'Мені однаково...'"
PERFORMER "Скрябін"
INDEX 01 00:00:00
TRACK 02 AUDIO
TITLE "'Гамалія' (уривок), 'Єсть на світі доля...' (уривок з поеми 'Катерина')"
PERFORMER "Сергій Решетник, Сад"
INDEX 01 01:37:69
TRACK 03 AUDIO
TITLE "'Не завидуй багатому...', 'Не нарікаю я на Бога...'"
PERFORMER "Андрій Середа, Кому Вниз"
INDEX 01 08:43:68
TRACK 04 AUDIO
TITLE "'Якось-то йдучи уночі...', 'Садок вишневий коло хати...'"
PERFORMER "Андрій Кузьменко, Мертвий Півень"
INDEX 01 12:08:53
TRACK 05 AUDIO
TITLE "'Кавказ' (уривки), 'Ой по горі роман цвіте...'"
PERFORMER "Тарас Чубай, Нічлава"
INDEX 01 15:43:47
TRACK 06 AUDIO
TITLE "'Косар', 'Стоїть в селі Суботові...' (уривок з містерії 'Великий льох')"
PERFORMER "Андрій Середа, Кому Вниз"
INDEX 01 21:09:47
TRACK 07 AUDIO
TITLE "'Доля', 'Не женися на багатій...', 'І тут, і всюди — скрізь погано...'"
PERFORMER "Ростислав Домішевський, Леся і Галя Тельнюк, Андрій Середа"
INDEX 01 27:25:69
Спектр
Якщо Ви справді бажаєте підтримати українське - після прослуховування, якщо музика вам сподобалась,
придбайте ліцензійний диск.
Підтримаймо вітчизняних виконавців!


Срібний реліз (на рейтинг впливає 50% завантаженого)
 Трекер:    Зареєстрований   

Завантажити / скачати українську музику



відео для новачків



 Зареєстрований:   2012-09-07 16:59
 Розмір:   183 MB 
 Оцінка музики:   10/10 (Голосів: 15)
   
Воантій 
Частий відвідувач


З нами з: 12.01.09
Востаннє: 01.12.16
Повідомлень: 25

2012-02-10 16:39  
Оце реліз!
З цього зможу витягнути якісний ріп.
Дякую.

jinotot 
Почесний оцифрувальник літератури


З нами з: 28.01.09
Востаннє: 04.12.16
Повідомлень: 3235

2012-02-10 22:54  
Воантій, а у вас куе-файли нормально відображаються? А то в мене якась біда з кодуваннями: у вінді було нормально, а тепер от в убунті крабозябри Sad (1)
ssTAss 
Модератор музики


З нами з: 05.07.08
Востаннє: 05.12.16
Повідомлень: 10939

2012-02-10 22:57  
jinotot написано:
куе-файли нормально відображаються?

все чудово
стиль тільки забули написати, але це не смертельно

jinotot 
Почесний оцифрувальник літератури


З нами з: 28.01.09
Востаннє: 04.12.16
Повідомлень: 3235

2012-02-10 23:09  
ssTAss, та хто його знає, шо там у них за стиль... я цей диск, здається, і не слухав навіть Rolleyes (2) Лише окремі пісні десь колись чув... тож і вирішив, що краще не писати зовсім: кожен собі сам додасть, якщо захоче, так же?

Але з кодуванням все одно треба щось вирішувати... Правда, боюсь, що вийде так, що в мене в лінуксі нормально відображатиметься, але тоді тарабарщина буде в тих, хто стягне... Happy Мабуть, присвячу вихідні польовим дослідженням кодувань в різних ОС))

civ 
VIP


З нами з: 16.02.11
Востаннє: 04.12.16
Повідомлень: 429

2012-02-11 14:06  
Роби все в утф-8 і ніде проблем не буде.
А стиль треба було писати рок і голову не ламати. Happy

jinotot 
Почесний оцифрувальник літератури


З нами з: 28.01.09
Востаннє: 04.12.16
Повідомлень: 3235

2012-02-11 15:15  
civ написано:
Роби все в утф-8 і ніде проблем не буде.
Так там, наче, утф-8 і був, але убунті моїй він чомусь не подобається Happy
jinotot 
Почесний оцифрувальник літератури


З нами з: 28.01.09
Востаннє: 04.12.16
Повідомлень: 3235

2012-02-12 20:04  
Нє, там було таки не utf-8. Тепер я підправив, роздачу оновив.
Sloneniatko 
Частий відвідувач


З нами з: 06.10.09
Востаннє: 04.12.16
Повідомлень: 44

2012-09-05 19:32  
Брати, де ви є? Відгукніться!
Sloneniatko 
Частий відвідувач


З нами з: 06.10.09
Востаннє: 04.12.16
Повідомлень: 44

2012-09-06 13:15  
Два тижні не качає. В чому може бути проблема?
jinotot 
Почесний оцифрувальник літератури


З нами з: 28.01.09
Востаннє: 04.12.16
Повідомлень: 3235

2012-09-06 17:15  
Sloneniatko, не знаю, я стояв на роздачі. Від мене до вас не роздає, хоч я пробував і з різних ОС, і з різних клієнтів. Просіть когось повернутися на роздачу. Або я створю наново торрент-файл.
ssTAss 
Модератор музики


З нами з: 05.07.08
Востаннє: 05.12.16
Повідомлень: 10939

2012-09-06 18:03  
зараз буду

Додано через 12 хвилин 57 секунд:

не знаю в чому причина, але переперевірку на 100% не проходить.. 99,8%
якщо це якраз ті частинки, що Вам потрібні, то добре, а якщо ні, то доведеться jinotot'у перезавантажувати

але бачу Ви все одно нічого не тягнете.. щось у Вас з налаштуваннями проблєми

і ще одне, по кількості завантаженого і відданого Ви ніби реліз вже стягнули
щось крутите з рейтингом?

Sloneniatko 
Частий відвідувач


З нами з: 06.10.09
Востаннє: 04.12.16
Повідомлень: 44

2012-09-06 18:12  
полетіла вінда, тепер свої улюблені релізи заново качаю...
jinotot 
Почесний оцифрувальник літератури


З нами з: 28.01.09
Востаннє: 04.12.16
Повідомлень: 3235

2012-09-07 17:05  
Оновив торрент-файл.
Sloneniatko, пробуйте стягнути тепер.

Додано через 2 хвилини 36 секунд:

ssTAss написано:
не знаю в чому причина, але переперевірку на 100% не проходить.. 99,8%
Ви завантажили цей реліз одним із перших. Я після того вже оновлював тут торрент-файл, бо поправляв кодування в лоґ- і куе-файлах.
Sloneniatko 
Частий відвідувач


З нами з: 06.10.09
Востаннє: 04.12.16
Повідомлень: 44

2012-09-07 18:57  
Зрушило з місця! Дякую.
Ваш часовий пояс: GMT + 2 Години

Нова тема   Відповісти