Завантажити та скачати торренти українською


Клеопатра / Cleopatra (1963) 1080p Ukr/Eng | Sub Eng

Нові коментарі

Нова тема   Відповісти
Автор Повідомлення
leroykendall 
Модератор HD


З нами з: 03.01.11
Востаннє: 20.11.16
Повідомлень: 749

2012-02-05 02:20  
Клеопатра / Cleopatra (1963) 1080p Ukr/Eng | Sub Eng

Клеопатра / Cleopatra (1963) 1080p Ukr/Eng | Sub Eng

«The motion picture the world has been waiting for!»


Жанр: біографія, драма, історичний
Країна: США, Великобританія, Швейцарія






Кіностудія / кінокомпанія: Twentieth Century Fox Film Corporation
Режисер: Джозеф Л. Манкевич (Joseph L. Mankiewicz)
Актори: Елізабет Тейлор (Elizabeth Taylor), Річард Бертон (Richard Burton), Рекс Гаррісон (Rex Harrison), Родді МакДауелл (Roddy McDowall), Памела Браун (Pamela Brown), Х'юм Кронін (Hume Cronyn), Чезаре Данова (Cesare Danova), Мартін Ландау (Martin Landau), Джордж Коул (George Cole), Кеннет Хейг (Kenneth Haigh), Ендрю Кір (Andrew Keir)

Сюжет:
Кінематографічна поема, присвячена прекрасній Клеопатрі, знаменитій цариці Єгипту, жінці, яка готова на все заради збереження величі свого народу. Події фільму розгортаються в першому столітті до нашої ери в Стародавньому Римі і Єгипті. Будучи вигнаною з палацу своїм ревнивим братом, Клеопатра відновлює свій титул за допомогою Римського імператора Юлія Цезаря. Одержима ідеєю об'єднання Єгипту і Риму в одну велику імперію, вона спокушає Цезаря і чекає від нього дитину. Коли його вбивають, Клеопатра наближає до себе генерала Марка Антонія. Вона легко знаходить в ньому вірного союзника. Фактично все готово до створення небаченої досі імперії, коли наступник Цезаря, Октавіан, оголошує їм обом війну...


Тривалість: 04:11:06 [01:59:34 + 02:11:32]
Якість: 1080p (автор genkasper)
Відео:
кодек:
розмір кадру: 1920х864
бітрейт: 13000 кб/с

Аудіо # 1:
мова: українська
переклад: двоголосий закадровий
кодек: 5.1
бітрейт: 448 кб/с

Аудіо # 2:
мова: англійська
переклад: оригінал
кодек: 5.1
бітрейт: 1536 кб/с

Джерело озвучення:


Субтитри:
мова: англійська
тип: програмні (м'які)
формат: *.srt

Lan написано:
Український звук mp3 було взято з іншого релізу цього фільму, за що подяка пану JACKUS та пані olgaya. Звукову доріжку було почищено від шумів, зведено під дане відео та перероблено на 5.1.
Цікаві факти

Ця епічна кінострічка знімалась протягом багатьох років на рекордний на ті часи бюджет у 44 мільйони доларів. Одна з найбільш відомих робіт акторської пари: Елізабет Тейлор і Річарда Бертона. Класичний пеплум Голлівуду, вважається чи не найкращою історичною кінострічкою усіх часів. Має чотири здобуті премії «Оскар».

У фільмі знайшли своє відображення безліч найвідоміших історичних подій, таких як:
• Битва при Фарсалі
• Пожежа Олександрійської бібліотеки
• Смерть Цезаря від руки Брута
Історія створення фільму

Створення фільму супроводжувалося дивними перипетіями. Спочатку бюджет фільму планувався в межах 2 млн доларів, але в підсумку перевищив 40. Фільм став одним з найдорожчих в історії кінематографу ($40 млн це приблизно $300 млн у цінах 2007 року). Студія XXth Century Fox ледь не стала банкрутом, так як фільм фактично провалився в прокаті. Та й самі зйомки насилу вдалося закінчити, тому що кінокомпанія кілька разів змінювала режисерів і продюсерів тривалого проекту.

Починали знімати фільм в околицях Лондона, потім продовжили в Римі і закінчували знову в Лондоні. «Цей фільм був зачатий в поспіху, знімався в істериці і був закінчений у сліпій паніці», - написав у мемуарах Джозеф Манкевич.

Настільки складний фільм з безліччю переплетень сюжетних ліній, як не дивно, знімався без єдиного сценарію. Багато сцен були значною мірою експромтами акторів. Тому критики негативно відзивалися про історичної достовірності. Сюжетна лінія, пов'язана з Октавіаном Августом і смертю Цезаря, значно різниться з сучасними історичними уявленнями про ці події.

Елізабет Тейлор, будучи на піку популярності в Голлівуді, стала головною і єдиною претенденткою на роль. Актриса не хотіла спочатку брати участь у фільмі, але продюсери бачили Клеопатру тільки в Тейлор, адже, справедливості заради, про красу і буйну вдачу актриси ходило не менше легенд, ніж про єгипетську царицю. Сама Елізабет була непохитна і пожартувала, що тільки за мільйон доларів погодиться: студія зробила свою пропозицію в мільйон, і Тейлор не встояла. Зйомки почалися в Лондоні, але Елізабет підхопила пневмонію і навіть була оголошена померлою (за її власною заявою, вона читала свій некролог в ранковій газеті). Процес загальмувався на 8 місяців, студія несла збитки. Тодішній чоловік Тейлор Фішер всіляко сприяв перенесенню зйомок до Риму: сухий клімат повинен був піти на користь його дружині. Але, врешті-решт, Рим пішов лише на користь двом розлученням. Річарда Бертона до зйомок багато хто попереджав про «спокусливості» Елізабет і про те, що вона завжди отримує все, що заманеться. Він же, будучи великим ловеласом, називав Тейлор «злегка повненькою і маленькою»... і, тим не менше, вже після перших любовних сцен режисерові доводилося кілька разів кричати «Стоп!», так як Телор і Бертон не припиняли цілуватися. Чоловік Ліз покинув знімальний майданчик, але дружина Річарда, живучи в Лондоні, вірила, що після закінчення зйомок він повернеться - він завжди повертався. У Тейлор же були свої плани, вона влаштовувала істерики і сцени, зривала зйомки і не хотіла чути нічого, окрім пропозиції про весілля. Бертон не встояв, він розлучився, привівши усю громадськість в стан шоку. Нарешті найважчі зйомки підійшли до кінця, на прем'єру Елізабет Тейлор приїхала в костюмі єгипетської цариці і під руку зі своїм «Марком Антонієм». Ставши таки місіс Бертон, вона ще раз підтвердила, що образ Клеопатри личив їй як ніякий іншій актрисі, напевно, саме тому в уяві пересічного глядача історична Клеопатра асоціюється виключно з розкішною і богемною Елізабет Тейлор.

Фільм не отримав втішних відгуків. Лише його перша частина, що розповідала про стосунки Цезаря з Клеопатрою, має якийсь логічний зміст, друга ж частина зім'ята і непослідовна. Можливо, це обумовлено відсутністю чіткого сценарію і зміною режисерів. Кінцевий матеріал вийшов на шість годин, його скомпонували до чотирьох, кажуть, що Тейлор після першого перегляду була в шоці від побаченого. Але, незважаючи ні на що, фільм став однією з легенд світового кінематографа і входить до золотої колекції Голлівуду.
MediaInfo
Серія 1
Код:

General
Complete name                    : V:\Cleopatra (1963) [Ukr, Eng] 1080p [Hurtom]\Cleopatra (Episode 1) (1963) [Ukr, Eng] 1080p [Hurtom] by leroykendall.mkv
Format                           : Matroska
File size                        : 12.5 GiB
Duration                         : 1h 59mn
Overall bit rate                 : 15.0 Mbps
Movie name                       : Cleopatra (Episode 1) (1963) [Ukr, Eng] 1080p [Hurtom] by leroykendall
Encoded date                     : UTC 2012-02-03 21:16:37
Writing application              : mkvmerge v4.9.1 ('Ich will') зібрано Jul 11 2011 23:53:15
Writing library                  : libebml v1.2.1 + libmatroska v1.1.1

Video
ID                               : 1
Format                           : AVC
Format/Info                      : Advanced Video Codec
Format profile                   : [email protected]
Format settings, CABAC           : Yes
Format settings, ReFrames        : 5 frames
Muxing mode                      : Container [email protected]
Codec ID                         : V_MPEG4/ISO/AVC
Duration                         : 1h 59mn
Bit rate                         : 12.7 Mbps
Nominal bit rate                 : 13.0 Mbps
Width                            : 1 920 pixels
Height                           : 864 pixels
Display aspect ratio             : 2.222
Frame rate                       : 23.976 fps
Resolution                       : 24 bits
Colorimetry                      : 4:2:0
Scan type                        : Progressive
Bits/(Pixel*Frame)               : 0.319
Stream size                      : 10.6 GiB (85%)
Title                            : Cleopatra (Episode 1) (1963) 1080p
Writing library                  : core 115 r1936 7a9e08d
Encoding settings                : cabac=1 / ref=5 / deblock=1:-2:-2 / analyse=0x3:0x133 / me=umh / subme=10 / psy=1 / psy_rd=1.00:0.10 / mixed_ref=1 / me_range=24 / chroma_me=1 / trellis=2 / 8x8dct=1 / cqm=0 / deadzone=21,11 / fast_pskip=0 / chroma_qp_offset=-3 / threads=9 / sliced_threads=0 / nr=0 / decimate=1 / interlaced=0 / bluray_compat=0 / constrained_intra=0 / bframes=11 / b_pyramid=2 / b_adapt=2 / b_bias=0 / direct=3 / weightb=1 / open_gop=0 / weightp=2 / keyint=250 / keyint_min=23 / scenecut=40 / intra_refresh=0 / rc_lookahead=50 / rc=2pass / mbtree=1 / bitrate=13000 / ratetol=1.0 / qcomp=0.70 / qpmin=0 / qpmax=69 / qpstep=4 / cplxblur=20.0 / qblur=0.5 / ip_ratio=1.40 / aq=1:1.00

Audio #1
ID                               : 2
Format                           : AC-3
Format/Info                      : Audio Coding 3
Codec ID                         : A_AC3
Duration                         : 1h 59mn
Bit rate mode                    : Constant
Bit rate                         : 448 Kbps
Channel(s)                       : 6 channels
Channel positions                : Front: L C R, Surround: L R, LFE
Sampling rate                    : 48.0 KHz
Stream size                      : 383 MiB (3%)
Title                            : 5.1 @ 448 кб/с Двоголосий закадровий 1+1
Language                         : Ukrainian

Audio #2
ID                               : 3
Format                           :
Format/Info                      : Digital Theater Systems
Codec ID                         : A_DTS
Duration                         : 1h 59mn
Bit rate mode                    : Constant
Bit rate                         : 1 510 Kbps
Channel(s)                       : 6 channels
Channel positions                : Front: L C R, Surround: L R, LFE
Sampling rate                    : 48.0 KHz
Resolution                       : 24 bits
Video delay                      : 3ms
Stream size                      : 1.26 GiB (10%)
Title                            : English, 5.1 @ 1536 kbps

Text
ID                               : 4
Format                           : UTF-8
Codec ID                         : S_TEXT/UTF8
Codec ID/Info                    : UTF-8 Plain Text
Title                            : English, SRT
Серія 2
Код:

General
Complete name                    : V:\Cleopatra (1963) [Ukr, Eng] 1080p [Hurtom]\Cleopatra (Episode 2) (1963) [Ukr, Eng] 1080p [Hurtom] by leroykendall.mkv
Format                           : Matroska
File size                        : 13.7 GiB
Duration                         : 2h 11mn
Overall bit rate                 : 15.0 Mbps
Movie name                       : Cleopatra (Episode 2) (1963) [Ukr, Eng] 1080p [Hurtom] by leroykendall
Encoded date                     : UTC 2012-02-03 22:38:04
Writing application              : mkvmerge v4.9.1 ('Ich will') зібрано Jul 11 2011 23:53:15
Writing library                  : libebml v1.2.1 + libmatroska v1.1.1

Video
ID                               : 1
Format                           : AVC
Format/Info                      : Advanced Video Codec
Format profile                   : [email protected]
Format settings, CABAC           : Yes
Format settings, ReFrames        : 5 frames
Muxing mode                      : Container [email protected]
Codec ID                         : V_MPEG4/ISO/AVC
Duration                         : 2h 11mn
Bit rate                         : 12.7 Mbps
Nominal bit rate                 : 13.0 Mbps
Width                            : 1 920 pixels
Height                           : 864 pixels
Display aspect ratio             : 2.222
Frame rate                       : 23.976 fps
Resolution                       : 24 bits
Colorimetry                      : 4:2:0
Scan type                        : Progressive
Bits/(Pixel*Frame)               : 0.319
Stream size                      : 11.7 GiB (85%)
Title                            : Cleopatra (Episode 2) (1963) 1080p
Writing library                  : core 115 r1936 7a9e08d
Encoding settings                : cabac=1 / ref=5 / deblock=1:-2:-2 / analyse=0x3:0x133 / me=umh / subme=10 / psy=1 / psy_rd=1.00:0.10 / mixed_ref=1 / me_range=24 / chroma_me=1 / trellis=2 / 8x8dct=1 / cqm=0 / deadzone=21,11 / fast_pskip=0 / chroma_qp_offset=-3 / threads=9 / sliced_threads=0 / nr=0 / decimate=1 / interlaced=0 / bluray_compat=0 / constrained_intra=0 / bframes=13 / b_pyramid=2 / b_adapt=2 / b_bias=0 / direct=3 / weightb=1 / open_gop=0 / weightp=2 / keyint=250 / keyint_min=23 / scenecut=40 / intra_refresh=0 / rc_lookahead=50 / rc=2pass / mbtree=1 / bitrate=13000 / ratetol=1.0 / qcomp=0.70 / qpmin=0 / qpmax=69 / qpstep=4 / cplxblur=20.0 / qblur=0.5 / ip_ratio=1.40 / aq=1:1.00

Audio #1
ID                               : 2
Format                           : AC-3
Format/Info                      : Audio Coding 3
Codec ID                         : A_AC3
Duration                         : 2h 11mn
Bit rate mode                    : Constant
Bit rate                         : 448 Kbps
Channel(s)                       : 6 channels
Channel positions                : Front: L C R, Surround: L R, LFE
Sampling rate                    : 48.0 KHz
Stream size                      : 422 MiB (3%)
Title                            : 5.1 @ 448 кб/с Двоголосий закадровий 1+1
Language                         : Ukrainian

Audio #2
ID                               : 3
Format                           :
Format/Info                      : Digital Theater Systems
Codec ID                         : A_DTS
Duration                         : 2h 11mn
Bit rate mode                    : Constant
Bit rate                         : 1 510 Kbps
Channel(s)                       : 6 channels
Channel positions                : Front: L C R, Surround: L R, LFE
Sampling rate                    : 48.0 KHz
Resolution                       : 24 bits
Video delay                      : 5ms
Stream size                      : 1.39 GiB (10%)
Title                            : English, 5.1 @ 1536 kbps

Text
ID                               : 4
Format                           : UTF-8
Codec ID                         : S_TEXT/UTF8
Codec ID/Info                    : UTF-8 Plain Text
Title                            : English, SRT


Скріншоти:







Подяки
Панам JACKUS, Lan та пані olgaya за звукову доріжку



Джерело: &
Особиста оцінка: 8 - класика


Срібний реліз (на рейтинг впливає 50% завантаженого)
 Трекер:    Зареєстрований   

Завантажити / скачати фільм українською



відео для новачків



 Зареєстрований:   2012-02-05 02:20
 Розмір:   26.23 GB 
 Оцінка фільму:   10/10 (Голосів: 6)
   
Інші релізи
   Клеопатра / Cleopatra (1963) Ukr/Eng | sub Eng JACKUS  4 / 0   5.14 GB   2012-02-09 10:07 
   Клеопатра / Cleopatra (1963) Ukr/Eng | Sub Eng Lan  3 / 1   4.26 GB   2010-09-01 23:30 
   Клеопатра / Cleopatra (1963) 720p Ukr/Eng | Sub Eng Lan  1 / 0   8.61 GB   2010-09-01 23:28 
JACKUS 
Відео Гуртом - фільмокрай
Відео Гуртом - фільмокрай


З нами з: 08.10.09
Востаннє: 05.12.16
Повідомлень: 1943

2012-02-05 13:27  
Берусь за ріп цього фільму.
ratbol 
Модератор HD


З нами з: 03.02.09
Востаннє: 07.12.16
Повідомлень: 1088

2012-02-05 15:04  
О, срібло!
Ваш часовий пояс: GMT + 2 Години

Нова тема   Відповісти