Завантажити та скачати торренти українською


Людина, яка змінила все / Moneyball (2011) 1080p Ukr/Eng | Sub Eng

Нові коментарі

Нова тема   Відповісти
Автор Повідомлення
Anonymous 







2012-02-04 21:20  
Людина, яка змінила все / Moneyball (2011) 1080p Ukr/Eng | Sub Eng

Людина, яка змінила все / Moneyball (2011) 1080p Ukr/Eng | Sub Eng


Жанр: біографічний, драма, спорт
Країна: США



Кіностудія / кінокомпанія: Film Rites, Columbia Pictures, Scott Rudin Productions, Michael De Luca Productions
Режисер: Беннет Міллер (Bennett Miller)
Актори: Бред Піт (Brad Pitt), Джона Гілл (Jonah Hill), Робін Райт (Robin Wright), Філіп Сеймур Гоффман (Philip Seymour Hoffman), Кріс Прат (Chris Pratt), Гленн Моршовер (Glenn Morshower), Стефан Бішоп (Stephen Bishop) та інші.

Сюжет:
Давно вже не секрет, що усім талантам потрібна фінансова допомога для того, щоб реалізуватися. І звичайно, ще важче, якщо мова йде про цілу команду талановитих бейсбольних гравців, адже відповідальність за здійснення їхніх мрій несе одна людина, лідер – на плечах якого доля перспективних молодих хлопців.


Тривалість: 02:13:14 [AVS1080]
Якість:
Відео:
кодек:
розмір кадру: 1920x1040
бітрейт: 9052 кб/с

Аудіо # 1:
мова: українська
переклад: професійний дубльований
кодек: 5.1
бітрейт: 640 кб/с

Аудіо # 2:
мова: англійська
переклад: оригінал
кодек: 5.1
бітрейт: 1536 кб/с

Аудіо # 3:
мова: англійська |Descriptive|
переклад: оригінал
кодек: 2.0
бітрейт: 192 кб/с

Джерело озвучення:


Субтитри:
мова: українська |Форсовані|
тип: програмні (м'які)
формат: *.srt

Субтитри:
мова: англійська
тип: програмні (м'які)
формат: *.srt

MediaInfo

Format : Matroska
File size : 10.6 GiB
Duration : 2h 13mn
Overall bit rate : 11.4 Mbps
Movie name : Moneyball (2011) 1080р Ukr,Eng Sub Eng
Encoded date : UTC 2012-02-04 19:02:17
Writing application : mkvmerge v2.4.2 ('Oh My God') built on Jan 18 2009 17:30:28
Writing library : libebml v0.7.7 + libmatroska v0.8.1
Video #1
ID : 1
Format : AVC
Format/Info : Advanced Video Codec
Format profile : [email protected]
Format settings, CABAC : Yes
Format settings, ReFrames : 4 frames
Muxing mode : Container [email protected]
Codec ID : V_MPEG4/ISO/AVC
Duration : 2h 13mn
Bit rate : 8 827 Kbps
Nominal bit rate : 9 052 Kbps
Width : 1 920 pixels
Height : 1 040 pixels
Display aspect ratio : 16:9
Frame rate : 23.976 fps
Resolution : 24 bits
Colorimetry : 4:2:0
Scan type : Progressive
Bits/(Pixel*Frame) : 0.184
Stream size : 8.21 GiB (77%)
Writing library : core 120 r2120 0c7dab9
Encoding settings : cabac=1 / ref=4 / deblock=1:-1:-1 / analyse=0x3:0x113 / me=umh / subme=7 / psy=1 / psy_rd=1.00:0.00 / mixed_ref=1 / me_range=16 / chroma_me=1 / trellis=1 / 8x8dct=1 / cqm=0 / deadzone=21,11 / fast_pskip=0 / chroma_qp_offset=-2 / threads=12 / sliced_threads=0 / nr=0 / decimate=1 / interlaced=0 / bluray_compat=0 / constrained_intra=0 / bframes=3 / b_pyramid=2 / b_adapt=2 / b_bias=0 / direct=3 / weightb=1 / open_gop=0 / weightp=2 / keyint=250 / keyint_min=23 / scenecut=40 / intra_refresh=0 / rc_lookahead=40 / rc=2pass / mbtree=1 / bitrate=9052 / ratetol=1.0 / qcomp=0.60 / qpmin=0 / qpmax=69 / qpstep=4 / cplxblur=20.0 / qblur=0.5 / vbv_maxrate=50000 / vbv_bufsize=50000 / nal_hrd=none / ip_ratio=1.40 / aq=1:1.00
Language : English
Audio #2
ID : 2
Format : AC-3
Format/Info : Audio Coding 3
Codec ID : A_AC3
Duration : 2h 13mn
Bit rate mode : Constant
Bit rate : 640 Kbps
Channel(s) : 6 channels
Channel positions : Front: L C R, Surround: L R, LFE
Sampling rate : 48.0 KHz
Stream size : 610 MiB (6%)
Title : 5.1 640 kbps Дубляж, Blu-ray CEE
Language : Ukrainian
Audio #3
ID : 3
Format :
Format/Info : Digital Theater Systems
Codec ID : A_DTS
Duration : 2h 13mn
Bit rate mode : Constant
Bit rate : 1 510 Kbps
Channel(s) : 6 channels
Channel positions : Front: L C R, Surround: L R, LFE
Sampling rate : 48.0 KHz
Resolution : 24 bits
Stream size : 1.41 GiB (13%)
Title : 5.1 1536 kbps
Language : English
Audio #4
ID : 4
Format : AC-3
Format/Info : Audio Coding 3
Codec ID : A_AC3
Duration : 2h 13mn
Bit rate mode : Constant
Bit rate : 192 Kbps
Channel(s) : 2 channels
Channel positions : L R
Sampling rate : 48.0 KHz
Stream size : 183 MiB (2%)
Title : Descriptive
Language : English
Text #5
ID : 5
Format : UTF-8
Codec ID : S_TEXT/UTF8
Codec ID/Info : UTF-8 Plain Text
Title : Forced
Language : Ukrainian
Text #6
ID : 6
Format : UTF-8
Codec ID : S_TEXT/UTF8
Codec ID/Info : UTF-8 Plain Text
Language : English
Скріншоти





Джерело: &
Особиста оцінка: 9/10


 Трекер:    Зареєстрований   

Завантажити / скачати фільм українською



відео для новачків



 Зареєстрований:   2012-02-04 21:20
 Розмір:   10.61 GB 
 Оцінка фільму:   9.6/10 (Голосів: 14)
   
DiGen 
Модератор HD та координатор Команди HD
Модератор HD та координатор Команди HD


З нами з: 12.11.09
Востаннє: 24.06.13
Повідомлень: 1452

2012-02-04 22:11  
Дивився. Дійсно вартий уваги. Хоча надіявся на кращу гру Бреда Піта
bot 
робот


З нами з: 30.09.07
Востаннє: 26.05.05
Повідомлень: 15973

2012-09-21 14:13  
Тему перенесено з Фільми в HD до форуму Неоформлене відео


urij546724

Ваш часовий пояс: GMT + 2 Години

Нова тема   Відповісти