Завантажити та скачати торренти українською


Факультет / The Faculty (1998) 720p 2xUkr/Eng | Sub Ukr/Eng

Нові коментарі

Нова тема   Відповісти
Автор Повідомлення
Віктор 
Відео Гуртом - субтитрування
Відео Гуртом - субтитрування


З нами з: 09.01.10
Востаннє: 09.12.16
Повідомлень: 8663

2012-02-04 11:38  
Факультет / The Faculty (1998) 720p 2xUkr/Eng | Sub Ukr/Eng

Факультет / The Faculty (1998) 720p 2xUkr/Eng | Sub Ukr/Eng

«Six students are about to find out their teachers really are from another planet.»


Жанр: жахи, комедія, фантастика



Кіностудія / кінокомпанія: Dimension Films, Los Hooligans Productions
Режисер: Роберт Родріґес (Robert Rodriguez)
Композитор: Марко Белтрамі (Marco Beltrami)
Актори: Роберт Патрік (Robert Patrick), Лора Гарріс (Laura Harris), Фамке Дженсен (Famke Janssen), Сальма Гаєк (Salma Hayek), Елайджа Вуд (Elijah Wood), Бібі Ньювірт (Bebe Neuwirth), Джордана Брюстер (Jordana Brewster), Клеа ДюВаль (Clea DuVall), Джош Гартнет (Josh Hartnett), Ашер Реймонд (Usher Raymond) та інші.

Сюжет:
Коледж Геррінґтон давно втратив свою первозданність. Його обшарпані коридори щоденно заповнює майбутнє Америки - одинаки і лідери, піжони і наркомани, розумники і кретини. Схожі на підлітків завжди і всюди, вони ведуть постійну боротьбу один з одним. Але одного разу студенти роблять жахливе відкриття: їхні викладачі - прибульці з іншої планети! Зіткнувшись з викликом, який вони навіть не могли собі уявити, колишні вороги змушені об’єднатися, щоби врятуватись від інопланетного вторгнення...
Номінацій, цікаві факти

Сатурн, 1999 рік
Номінації (2):
Найкращий молодий актор/актриса (Джош Гартнет)
Найкращий фільм жахів

Цікаві факти про фільм


• У туалеті можна помітити напис "Tito and Tarantula". Ця група написала частину музики і зіграла в двох інших картинах Родріґеса - "Відчайдушний"(1995) і "Від заходу до світанку"(1996).
• Мерібет відмовляється вживати наркотики, заявивши, що у неї алергія. На що Делайла (Джордана Брюстер) відповідає: "А я португалка". У реальному житті Брюстер вільно розмовляє португальскою.
• Джон Стюарт виконав роль професора Едварда Ферлонга. Актора Едварда Ферлонга, Коннора, що зіграв Джона, в "Термінаторові 2: Судний день"(1991), переслідував Т-1000, в ролі якого знявся Роберт Патрік, що зіграв у "Факультеті" тренера Джо Вілліса.
• В сцені, де ми чуємо оголошення про те, що школярі повинні пройти у вчительську, одного з них звуть Томмі Нікс. У реальному житті Томмі Нікс - друг Роберта Родріґеса з часів коледжу. Він допомагав Роберту в написанні сценарію до "Гонщиків" (1994)
• Машина Зіка - 1970 Pontiac GTO.
• Роль Делайли була спеціально написана для Харизми Карпентер, але актриса відкинула пропозицію, подумавши, що цей персонаж дуже схожий на її героїню в "Баффі - переможнця вампірів"(1997).
• Герої фільму одягнені в одяг "Tommy Hilfiger". Актори, що зіграли головні ролі, також з’явилися в телевізійних роликах і друкарській рекламі цього бренду.
• Бюджет: $15,000,000
MediaInfo

Код:
General
Unique ID                        : 196618400538670028991792016881944948625 (0x93EB5396E9A59F02A8B93494AC0CEF91)
Complete name                    : D:\HURTOM\The Faculty (1998) [2xUkr, Eng] 720p [Hurtom].mkv
Format                           : Matroska
Format version                   : Version 2
File size                        : 5.57 GiB
Duration                         : 1h 44mn
Overall bit rate                 : 7 649 Kbps
Movie name                       : The Faculty (1998) [2xUkr, Eng] 720p [Hurtom]
Encoded date                     : UTC 2012-02-04 20:58:01
Writing application              : mkvmerge v5.0.1 ('Es ist Sommer') built on Oct  9 2011 11:55:43
Writing library                  : libebml v1.2.2 + libmatroska v1.3.0

Video
ID                               : 1
Format                           : AVC
Format/Info                      : Advanced Video Codec
Format profile                   : [email protected]
Format settings, CABAC           : Yes
Format settings, ReFrames        : 6 frames
Codec ID                         : V_MPEG4/ISO/AVC
Duration                         : 1h 44mn
Bit rate                         : 5 242 Kbps
Width                            : 1 280 pixels
Height                           : 720 pixels
Display aspect ratio             : 16:9
Frame rate                       : 23.976 fps
Color space                      : YUV
Chroma subsampling               : 4:2:0
Bit depth                        : 8 bits
Scan type                        : Progressive
Bits/(Pixel*Frame)               : 0.237
Stream size                      : 3.71 GiB (67%)
Title                            : The Faculty (1998) [2xUkr, Eng] 720p [Hurtom]
Writing library                  : core 79 r1332M 70f8869
Encoding settings                : cabac=1 / ref=6 / deblock=1:-3:-3 / analyse=0x3:0x113 / me=umh / subme=10 / psy=1 / psy_rd=1.2:0.0 / mixed_ref=1 / me_range=32 / chroma_me=1 / trellis=2 / 8x8dct=1 / cqm=0 / deadzone=21,11 / chroma_qp_offset=-2 / threads=6 / nr=0 / decimate=1 / mbaff=0 / constrained_intra=0 / bframes=8 / b_pyramid=0 / b_adapt=2 / b_bias=0 / direct=3 / wpredb=1 / wpredp=2 / keyint=250 / keyint_min=25 / scenecut=40 / rc=2pass / mbtree=0 / bitrate=5242 / ratetol=1.0 / qcomp=0.60 / qpmin=10 / qpmax=51 / qpstep=4 / cplxblur=20.0 / qblur=0.5 / ip_ratio=1.40 / pb_ratio=1.30 / aq=1:1.00
Language                         : English
Default                          : Yes
Forced                           : No

Audio #1
ID                               : 2
Format                           : AC-3
Format/Info                      : Audio Coding 3
Mode extension                   : CM (complete main)
Codec ID                         : A_AC3
Duration                         : 1h 44mn
Bit rate mode                    : Constant
Bit rate                         : 448 Kbps
Channel(s)                       : 6 channels
Channel positions                : Front: L C R, Side: L R, LFE
Sampling rate                    : 48.0 KHz
Bit depth                        : 16 bits
Compression mode                 : Lossy
Stream size                      : 334 MiB (6%)
Title                            :   5.1 448 Kbps - двоголосий закадровий запис звуку з 1+1
Language                         : Ukrainian
Default                          : Yes
Forced                           : No

Audio #2
ID                               : 3
Format                           : AC-3
Format/Info                      : Audio Coding 3
Mode extension                   : CM (complete main)
Codec ID                         : A_AC3
Duration                         : 1h 44mn
Bit rate mode                    : Constant
Bit rate                         : 448 Kbps
Channel(s)                       : 6 channels
Channel positions                : Front: L C R, Side: L R, LFE
Sampling rate                    : 48.0 KHz
Bit depth                        : 16 bits
Compression mode                 : Lossy
Stream size                      : 334 MiB (6%)
Title                            :   5.1 448 Kbps - двоголосий закадровий запис звуку з Нового Каналу
Language                         : Ukrainian
Default                          : No
Forced                           : No

Audio #3
ID                               : 4
Format                           :
Format/Info                      : Digital Theater Systems
Codec ID                         : A_DTS
Duration                         : 1h 44mn
Bit rate mode                    : Constant
Bit rate                         : 1 510 Kbps
Channel(s)                       : 6 channels
Channel positions                : Front: L C R, Side: L R, LFE
Sampling rate                    : 48.0 KHz
Bit depth                        : 24 bits
Compression mode                 : Lossy
Stream size                      : 1.10 GiB (20%)
Title                            : 5.1 1536 Kbps
Language                         : English
Default                          : No
Forced                           : No

Text #1
ID                               : 5
Format                           : UTF-8
Codec ID                         : S_TEXT/UTF8
Codec ID/Info                    : UTF-8 Plain Text
Language                         : Ukrainian
Default                          : No
Forced                           : No

Text #2
ID                               : 6
Format                           : UTF-8
Codec ID                         : S_TEXT/UTF8
Codec ID/Info                    : UTF-8 Plain Text
Language                         : English
Default                          : No
Forced                           : No
Релізи та інформація про озвучення/дублювання

720p 2xUkr/Eng | Sub Ukr/Eng (2.51 GB) — двоголосий закадровий запис з 1+1 і двоголосий закадровий запис з Нового Каналу
2xUkr/Eng | Sub Ukr/Eng (2.51 GB) — двоголосий закадровий запис з 1+1 і двоголосий закадровий запис з Нового Каналу

Про озвучення записане з 1+1
Ролі озвучили: Андрій Твердак і Людмила Ардельян

Про озвучення записане з Нового каналу
Ролі озвучили: Юрій Ребрик і Катерина Брайковська
Тривалість: 01:44:11
Якість: 720p (DON)
Відео:
кодек:
розмір кадру: 1280x720 (1.78:1)
бітрейт: 5242 кб/с
частота кадрів: 23.976

Аудіо # 1:
мова: українська
переклад: двоголосий закадровий запис з 1+1 | Ролі озвучили: Андрій Твердак і Людмила Ардельян
кодек: 5.1
бітрейт: 448 кб/с

Аудіо # 2:
мова: українська
переклад: двоголосий закадровий запис з Нового Каналу | Ролі озвучили: Юрій Ребрик і Катерина Брайковська
кодек: 5.1
бітрейт: 448 кб/с

Аудіо # 3:
мова: англійська
переклад: ориґінал
кодек: 5.1
бітрейт: 1536 кб/с

Субтитри # 1:
мова: українська
тип: програмні (м’які)
формат: *.srt
переклад субтитрів: з російської _oles, редаговані w2958l

Субтитри # 2:
мова: англійська
тип: програмні (м’які)
формат: *.srt

Скріншоти:





За синхронізацію доріжок 5.1 і люб’язно наданий код оформлення подяка _oles,
за запис звуку з тб подяка greg_7 і DareDevil96


Джерело:
Особиста оцінка: 8


Срібний реліз (на рейтинг впливає 50% завантаженого)
 Трекер:    Зареєстрований   

Завантажити / скачати фільм українською



відео для новачків



 Зареєстрований:   2012-02-04 23:17
 Розмір:   5.57 GB 
 Оцінка фільму:   7.1/10 (Голосів: 10)
   
Інші релізи
   Факультет / The Faculty (1998) [MP4, 640x] apvAltisimo  0 / 0   621 MB   2016-04-03 14:33 
   Факультет / The Faculty (1998) 2xUkr/Eng | Sub Ukr/Eng _oles  2 / 1   2.51 GB   2012-02-04 10:10 
ohotnik_ 
Новенький


З нами з: 04.03.11
Востаннє: 08.12.16
Повідомлень: 9

2012-02-04 17:49  
Класний фільм!!!
olgaya 
Відео Гуртом - запис з ТБ
Відео Гуртом - запис з ТБ


З нами з: 27.09.08
Востаннє: 26.11.16
Повідомлень: 184

2012-02-04 21:57  
є ще звук від 1+1
bot 
робот


З нами з: 30.09.07
Востаннє: 26.05.05
Повідомлень: 16030

2012-02-04 23:17  
olgaya написано:
є ще звук від 1+1

Саме він і йде першим, просто я не дописав. Зараз усе вказано.

Ваш часовий пояс: GMT + 2 Години

Нова тема   Відповісти