Завантажити та скачати торренти українською


Чорнокнижник / Warlock (1989) 720p 2хUkr/Eng

Нові коментарі

Нова тема   Відповісти
Автор Повідомлення
Zeus62 
Відео Гуртом - команда HD
Відео Гуртом - команда HD


З нами з: 29.12.08
Востаннє: 16.11.16
Повідомлень: 330

2012-02-04 02:04  
Чорнокнижник / Warlock (1989) 720p 2хUkr/Eng



<<Він прийшов з минулого, щоб знищити майбутнє...>>

Жанр: фентезі, трилер, пригодницький, жахи
Країна: США



Кіностудія / кінокомпанія: New World Pictures
Режисер: Стів Майнер
Актори: Джуліан Сендс, Лорі Сінгер, Річард Е. Грант, Мері Воронов, Кевін О'Брайен, Річард Касс, Аллан Міллер, Анна Левайн-Томпсон, Девід Карпентер, Кей Катер

Сюжет:
Чаклун з XVII століття втікає в 1988 рік, щоб уникнути повішення та спалення над корзиною з живими кішками. Але утікача переслідує дух його заклятого ворога, який повстав з могили, щоб покінчити з нечистю, що користується заступництвом сатанинських сил.
Чи знаєте ви, що...:

• Правами на фільм володіла компанія Роджера Кормен, але після того, як вона пішла на дно, фільм поклали на полицю. Тільки в 1990 році «Trimark» випустила фільм на широкі екрани.
• Фільм знімався в штаті Юта (те саме соляне озеро в фіналі картини), у містах штату Массачусетс - Бостоні і Плімуті, а також в м. Лос-Анджелесі (штат Каліфорнія).
• Картина була закінчена ще в 1988 році, ставши одним з останніх фільмів кінокомпанії «New World Pictures», перш, ніж та збанкрутувала.
Тривалість: 1:46:07
Якість:
Відео:
кодек:
розмір кадру: 1280 х 696
бітрейт: 4496 кб/с

Аудіо 1:
мова: українська
переклад: багатоголосий закадровий
кодек: -HD MA 2.0
бітрейт: 1510 кб/с

Аудіо 2:
мова: англійська
переклад: оригінал
кодек: -HD MA 2.0
бітрейт: ~1803 кб/с

Аудіо 3:
мова: українська
переклад: двоголосий закадровий
кодек: 2.0
бітрейт: 192 кб/с
MediaInfo:
File size : 5.80 GiB
Duration : 1h 46mn
Overall bit rate mode : Variable
Overall bit rate : 7 824 Kbps
Encoded date : UTC 2012-02-11 23:13:20
Writing application : mkvmerge v5.3.0 ('I could have danced') built on Feb 9 2012 23:25:33
Writing library : libebml v1.2.2 + libmatroska v1.3.0

Video
ID : 1
Format : AVC
Format/Info : Advanced Video Codec
Format profile : [email protected]
Format settings, CABAC : Yes
Format settings, ReFrames : 16 frames
Codec ID : V_MPEG4/ISO/AVC
Duration : 1h 46mn
Bit rate : 4 184 Kbps
Nominal bit rate : 4 496 Kbps
Width : 1 280 pixels
Height : 696 pixels
Display aspect ratio : 16:9
Original display aspect ratio : 16:9
Frame rate mode : Variable
Frame rate : 23.976 fps
Color space : YUV
Chroma subsampling : 4:2:0
Bit depth : 8 bits
Scan type : Progressive
Bits/(Pixel*Frame) : 0.196
Stream size : 3.10 GiB (53%)
Writing library : core 112
Encoding settings : cabac=1 / ref=16 / deblock=1:-3:-3 / analyse=0x3:0x113 / me=umh / subme=10 / psy=1 / psy_rd=1,00:0,00 / mixed_ref=1 / me_range=64 / chroma_me=1 / trellis=2 / 8x8dct=1 / cqm=0 / deadzone=21,11 / fast_pskip=1 / chroma_qp_offset=-2 / threads=9 / sliced_threads=0 / nr=0 / decimate=1 / interlaced=0 / constrained_intra=0 / bframes=16 / b_pyramid=2 / b_adapt=2 / b_bias=0 / direct=1 / weightb=1 / open_gop=0 / weightp=2 / keyint=240 / keyint_min=23 / scenecut=40 / intra_refresh=0 / rc_lookahead=50 / rc=2pass / mbtree=1 / bitrate=4496 / ratetol=1,0 / qcomp=0,60 / qpmin=3 / qpmax=51 / qpstep=4 / cplxblur=20,0 / qblur=0,5 / ip_ratio=1,40 / aq=1:1,00
Language : Ukrainian
Default : Yes
Forced : No
Color primaries : BT.709-5, BT.1361, IEC 61966-2-4, SMPTE RP177
Transfer characteristics : BT.709-5, BT.1361
Matrix coefficients : BT.709-5, BT.1361, IEC 61966-2-4 709, SMPTE RP177

Audio #1
ID : 2
Format :
Format/Info : Digital Theater Systems
Codec ID : A_DTS
Duration : 1h 46mn
Bit rate mode : Constant
Bit rate : 1 510 Kbps
Channel(s) : 2 channels
Channel positions : Front: L R
Sampling rate : 48.0 KHz
Bit depth : 16 bits
Compression mode : Lossy
Stream size : 1.12 GiB (19%)
Language : Ukrainian
Default : Yes
Forced : No

Audio #2
ID : 3
Format :
Format/Info : Digital Theater Systems
Format profile : MA / Core
Codec ID : A_DTS
Duration : 1h 46mn
Bit rate mode : Variable
Bit rate : 1 783 Kbps / 1 510 Kbps
Channel(s) : 2 channels
Channel positions : Front: L R
Sampling rate : 48.0 KHz
Bit depth : 16 bits
Compression mode : Lossless / Lossy
Language : English
Default : No
Forced : No

Audio #3
ID : 4
Format : AC-3
Format/Info : Audio Coding 3
Mode extension : CM (complete main)
Codec ID : A_AC3
Duration : 1h 46mn
Bit rate mode : Constant
Bit rate : 192 Kbps
Channel(s) : 2 channels
Channel positions : Front: L R
Sampling rate : 48.0 KHz
Bit depth : 16 bits
Compression mode : Lossy
Stream size : 146 MiB (2%)
Language : Ukrainian
Default : No
Forced : No
log:
[info]: frame I:989 Avg QP:17,19 size:133498 PSNR Mean Y:46,53 U:50,49 V:51,06 Avg:47,52 Global:47,24
[info]: frame P:30185 Avg QP:20,10 size: 49551 PSNR Mean Y:44,29 U:48,97 V:49,44 Avg:45,36 Global:44,79
[info]: frame B:117321 Avg QP:22,47 size: 15786 PSNR Mean Y:42,72 U:48,64 V:49,11 Avg:43,97 Global:43,76
[info]: consecutive B-frames: 0,7% 1,4% 5,4% 16,8% 18,6% 51,1% 4,8% 0,6% 0,3% 0,1% 0,1% 0,0% 0,0% 0,0% 0,0% 0,0% 0,0%
[info]: mb I I16..4: 1,2% 88,1% 10,6%
[info]: mb P I16..4: 0,5% 10,5% 1,0% P16..4: 38,4% 31,5% 16,2% 0,0% 0,0% skip: 2,0%
[info]: mb B I16..4: 0,0% 0,8% 0,1% B16..8: 43,5% 14,6% 4,0% direct: 6,6% skip:30,3% L0:43,0% L1:46,4% BI:10,7%
[info]: 8x8 transform intra:87,6% inter:66,2%
[info]: coded y,uvDC,uvAC intra: 95,0% 77,1% 35,2% inter: 35,2% 21,1% 0,7%
[info]: i16 v,h,dc,p: 42% 10% 7% 41%
[info]: i8 v,h,dc,ddl,ddr,vr,hd,vl,hu: 12% 6% 4% 11% 16% 15% 13% 12% 11%
[info]: i4 v,h,dc,ddl,ddr,vr,hd,vl,hu: 13% 5% 2% 9% 16% 17% 14% 12% 11%
[info]: i8c dc,h,v,p: 36% 24% 21% 19%
[info]: Weighted P-Frames: Y:3,0% UV:2,0%
[info]: ref P L0: 36,4% 10,3% 19,4% 6,4% 6,4% 3,9% 4,2% 2,0% 2,2% 1,5% 1,7% 1,2% 1,4% 1,1% 1,2% 0,8%
[info]: ref B L0: 75,8% 9,7% 4,2% 2,4% 1,6% 1,5% 1,1% 0,7% 0,6% 0,6% 0,5% 0,5% 0,4% 0,3% 0,2%
[info]: ref B L1: 95,9% 4,1%
[info]: SSIM Mean Y:0,9682181 (14,978db)
[info]: PSNR Mean Y:43,066 U:48,716 V:49,188 Avg:44,277 Global:43,968 kb/s:4494,73
Скріншоти:
Original vs Encode






Джерело: Власний ріп + +
Подяка RekoJ за українську доріжку від 2+2
Особиста оцінка: 8 - доволі непогане кіно на свій час


Срібний реліз (на рейтинг впливає 50% завантаженого)
 Трекер:    Зареєстрований   

Завантажити / скачати фільм українською



відео для новачків



 Зареєстрований:   2012-02-12 01:48
 Розмір:   5.8 GB 
 Оцінка фільму:   9.8/10 (Голосів: 4)
   
Інші релізи
   Чорнокнижник / Warlock (1989) 2xUkr RekoJ  5 / 0   1.45 GB   2012-02-05 12:49 
braveboy 
Відео Гуртом - команда HD
Відео Гуртом - команда HD


З нами з: 15.06.10
Востаннє: 29.10.16
Повідомлень: 958

2012-02-04 02:11  
Poster

Код:
[img]http://s2.share.te.ua/b400049/Warlock.jpg[/img]


Zeus62 
Відео Гуртом - команда HD
Відео Гуртом - команда HD


З нами з: 29.12.08
Востаннє: 16.11.16
Повідомлень: 330

2012-02-04 02:26  
braveboy,
дякую за постер.

robotron005 
Відео Гуртом - фільмокрай
Відео Гуртом - фільмокрай


З нами з: 29.01.09
Востаннє: 03.12.16
Повідомлень: 2981

2012-02-04 03:23  
Zeus62 мож краще трохи пізніше пан w2958l зробить з трьома укр. дорогами?
Zeus62 
Відео Гуртом - команда HD
Відео Гуртом - команда HD


З нами з: 29.12.08
Востаннє: 16.11.16
Повідомлень: 330

2012-02-04 03:53  
Цитата:
Zeus62 мож краще трохи пізніше пан w2958l зробить з трьома укр. дорогами?

А звідки така інформація про 3 українські дороги і їх наявність у w2958l ?

Віктор 
Відео Гуртом - субтитрування
Відео Гуртом - субтитрування


З нами з: 09.01.10
Востаннє: 03.12.16
Повідомлень: 8662

2012-02-04 11:30  
Zeus62 написано:
А звідки така інформація про 3 українські дороги і їх наявність у w2958l ?

З надійних джерел.

Anonymous 







2012-02-04 12:06  
на шдклабі є -HD MA 2.0, ~1804.00 kbps avg
Zeus62 
Відео Гуртом - команда HD
Відео Гуртом - команда HD


З нами з: 29.12.08
Востаннє: 16.11.16
Повідомлень: 330

2012-02-04 12:39  
Цитата:
на шдклабі є -HD MA 2.0, ~1804.00 kbps avg

Ну так оце їхнє ~1804.00 kbps і є 1510 кб/с

Віктор 
Відео Гуртом - субтитрування
Відео Гуртом - субтитрування


З нами з: 09.01.10
Востаннє: 03.12.16
Повідомлень: 8662

2012-02-04 13:41  
Але, якщо сюди додасться оригінальна доріжка+саби, та інші дві укр. було б чудово. Тоді я не викладатиму.
Sirco 
Свій


З нами з: 26.03.08
Востаннє: 13.09.16
Повідомлень: 92

2012-02-04 21:20  
Чудово
А 2 частина планується ?

Zeus62 
Відео Гуртом - команда HD
Відео Гуртом - команда HD


З нами з: 29.12.08
Востаннє: 16.11.16
Повідомлень: 330

2012-02-04 21:49  
Цитата:
А 2 частина планується ?

Поки ні. Бо немає ні озвучки українською мовою(принаймні в мене), ні самої другої і третьої частини навіть в , не те щоб в Blu-Ray.

bot 
робот


З нами з: 30.09.07
Востаннє: 26.05.05
Повідомлень: 15977

2012-02-11 21:41  
Тему перенесено з Анонси релізів від Відео Гуртом до форуму Фільми в HD


Zeus62

Віктор 
Відео Гуртом - субтитрування
Відео Гуртом - субтитрування


З нами з: 09.01.10
Востаннє: 03.12.16
Повідомлень: 8662

2012-02-11 23:49  
Чому відсутня доріжка від 2+2? Є вже готова - http://toloka.to/t32653
Zeus62 
Відео Гуртом - команда HD
Відео Гуртом - команда HD


З нами з: 29.12.08
Востаннє: 16.11.16
Повідомлень: 330

2012-02-12 00:18  
Вона відсутня бо пан robotron005 ще не займався її синхронізацією. Коли він зробить доріжку, то я її додам.
Віктор 
Відео Гуртом - субтитрування
Відео Гуртом - субтитрування


З нами з: 09.01.10
Востаннє: 03.12.16
Повідомлень: 8662

2012-02-12 00:19  
Zeus62 написано:
Вона відсутня бо пан robotron005 ще не займався її синхронізацією. Коли він зробить доріжку, то я її додам.


Вона вже зроблена, я ж не просто так посилання дав.

Zeus62 
Відео Гуртом - команда HD
Відео Гуртом - команда HD


З нами з: 29.12.08
Востаннє: 16.11.16
Повідомлень: 330

2012-02-12 00:51  
Цитата:
Вона вже зроблена, я ж не просто так посилання дав.

Добре, додам цю.

Ваш часовий пояс: GMT + 2 Години

Нова тема   Відповісти