Завантажити та скачати торренти українською


Зоряний десант / Starship Troopers (1997) 720p 2xUkr/Eng

Нові коментарі

Нова тема   Відповісти
Автор Повідомлення
SuperContik 
VIP


З нами з: 25.02.08
Востаннє: 13.09.16
Повідомлень: 332

2012-02-03 13:21  
Зоряний десант / Starship Troopers (1997) 720p 2xUkr/Eng

Зоряний десант / Starship Troopers (1997) 720p 2xUkr/Eng

«Відтепер людство - вимираючий вид!»


Жанр: Триллер, Бойовик, Фантастика, Пригодницький
Країна: США



Кіностудія / кінокомпанія: Big Bug Pictures | Touchstone Pictures | TriStar Pictures
Режисер: Пол Верховен
Актори: Каспер Ван Дін, Діна Мейер, Деніс Річардс, Джейк Бьюзі, Ніл Патрік Харріс, Кленсі Браун, Сет Гілл, Патрік Малдун, Майкл Айронсайд, Ру МакКленахан

Сюжет:
У новому тисячолітті над людством нависла смертельна небезпека. Незліченна кількість гігантських розумних жуків з далекої планети Клендат загрожують всьому живому у всесвіті.

Солдат елітного підрозділу Джонні Ріко і пілот Кармен в складі зоряного десанту землян на космічному військовому кораблі Тікондерога відправляються в зловісну глибини космосу, щоб в останній вирішальній сутичці вирішити долю Землі.

У їхніх руках - сучасна зброя і майбутнє людської раси.


Тривалість: 02:09:37
Якість:
Відео:
кодек:
розмір кадру: 1280x694
бітрейт: 8000 кб/с

Аудіо # 1:
мова: українська
переклад: багатоголосий закадровий
кодек: 5.1
бітрейт: 384 кб/с

Аудіо # 2:
мова: українська
переклад: багатоголосий закадровий
кодек: 5.1
бітрейт: 384 кб/с

Аудіо # 3:
мова: англійська
переклад: оригінал
кодек: 5.1
бітрейт: 1536 кб/с

Джерело озвучення:
&

Велика подяка realnitro за українізований постер
Велика подяка Romario_O за надані українські доріжки
Величезна подяка Maryen'i за наданий переклад від телеканалу "Інтер"
MediaInfo
General
Complete name : D:\Фільми\Starship Troopers (1997) [2xUkr, Eng] 720p [Hurtom].mkv
Format : Matroska
File size : 9.30 GiB
Duration : 2h 9mn
Overall bit rate : 10.3 Mbps
Movie name : Starship Troopers (1997) - Release for Hurtom
Encoded date : UTC 2012-02-03 10:54:07
Writing application : mkvmerge v4.3.0 ('Escape from the Island') збірка від Sep 5 2010 10:30:51
Writing library : libebml v1.0.0 + libmatroska v1.0.0
Cover : Yes / Yes

Video
ID : 1
Format : AVC
Format/Info : Advanced Video Codec
Format profile : [email protected]
Format settings, CABAC : Yes
Format settings, ReFrames : 9 frames
Muxing mode : Container [email protected]
Codec ID : V_MPEG4/ISO/AVC
Duration : 2h 9mn
Bit rate : 7 789 Kbps
Nominal bit rate : 8 000 Kbps
Width : 1 280 pixels
Height : 694 pixels
Display aspect ratio : 16:9
Frame rate : 23.976 fps
Resolution : 8 bits
Colorimetry : 4:2:0
Scan type : Progressive
Bits/(Pixel*Frame) : 0.366
Stream size : 7.05 GiB (76%)
Title : Release for Hurtom
Writing library : core 120 r2146 bcd41db
Encoding settings : cabac=1 / ref=9 / deblock=1:-3:-3 / analyse=0x3:0x113 / me=umh / subme=11 / psy=1 / psy_rd=0.90:0.05 / mixed_ref=1 / me_range=48 / chroma_me=1 / trellis=2 / 8x8dct=1 / cqm=0 / deadzone=21,11 / fast_pskip=0 / chroma_qp_offset=-3 / threads=12 / sliced_threads=0 / nr=0 / decimate=0 / interlaced=0 / bluray_compat=0 / constrained_intra=0 / bframes=9 / b_pyramid=2 / b_adapt=2 / b_bias=0 / direct=3 / weightb=1 / open_gop=0 / weightp=2 / keyint=250 / keyint_min=23 / scenecut=40 / intra_refresh=0 / rc_lookahead=40 / rc=2pass / mbtree=0 / bitrate=8000 / ratetol=1.0 / qcomp=0.60 / qpmin=0 / qpmax=69 / qpstep=4 / cplxblur=20.0 / qblur=0.5 / vbv_maxrate=50000 / vbv_bufsize=62500 / nal_hrd=none / ip_ratio=1.10 / pb_ratio=1.10 / aq=2:0.80
Matrix coefficients : BT.709-5, BT.1361, IEC 61966-2-4 709, SMPTE RP177

Audio #1
ID : 2
Format : AC-3
Format/Info : Audio Coding 3
Codec ID : A_AC3
Duration : 2h 9mn
Bit rate mode : Constant
Bit rate : 384 Kbps
Channel(s) : 6 channels
Channel positions : Front: L C R, Surround: L R, LFE
Sampling rate : 48.0 KHz
Video delay : 2s 0ms
Stream size : 356 MiB (4%)
Title : 5.1 @ 384 kbps багатоголосий, ICTV
Language : Ukrainian

Audio #2
ID : 3
Format : AC-3
Format/Info : Audio Coding 3
Codec ID : A_AC3
Duration : 2h 9mn
Bit rate mode : Constant
Bit rate : 384 Kbps
Channel(s) : 6 channels
Channel positions : Front: L C R, Surround: L R, LFE
Sampling rate : 48.0 KHz
Video delay : 2s 0ms
Stream size : 356 MiB (4%)
Title : 5.1 @ 384 kbps багатоголосий, Інтер
Language : Ukrainian

Audio #3
ID : 4
Format :
Format/Info : Digital Theater Systems
Codec ID : A_DTS
Duration : 2h 9mn
Bit rate mode : Constant
Bit rate : 1 510 Kbps
Channel(s) : 6 channels
Channel positions : Front: L C R, Surround: L R, LFE
Sampling rate : 48.0 KHz
Resolution : 16 bits
Video delay : 11ms
Stream size : 1.37 GiB (15%)
Title : 5.1 @ 1536 kbps
Скріншоти:





Джерело: &
Особиста оцінка: 0 - не дивився


Срібний реліз (на рейтинг впливає 50% завантаженого)
 Трекер:    Зареєстрований   

Завантажити / скачати фільм українською



відео для новачків



 Зареєстрований:   2012-02-03 13:59
 Розмір:   9.3 GB 
 Оцінка фільму:   9.8/10 (Голосів: 19)
   
Інші релізи
   Зоряний десант / Starship Troopers (1997) Ukr/Eng Romario_O  7 / 2   2.94 GB   2009-07-17 15:30 
Віктор 
Відео Гуртом - субтитрування
Відео Гуртом - субтитрування


З нами з: 09.01.10
Востаннє: 04.12.16
Повідомлень: 8663

2012-02-03 13:29  
SuperContik написано:
Starship.Troopers.1997.720p..2Ukr.Eng[Hurtom].


Нормально підпиши - http://toloka.to/t3644 ось так - Starship Troopers (1997) [2xUkr, Eng] 720p [Hurtom]

В назву теми 2xUkr. Мініатюрні скріншоти витягни з-під спойлеру.

720p -поміняй місцями.

BoykiwsAndreys 
Частий відвідувач


З нами з: 26.01.12
Востаннє: 04.10.16
Повідомлень: 45

2012-07-16 17:49  
Кіно просто бомба.
Раджу також Зіграти ігри по мотивам цього фільму.

Bucky 
Новенький


З нами з: 23.11.16
Востаннє: 04.12.16
Повідомлень: 3

2016-11-30 21:19  
Один з улюблених фільмів дитинства. Як і тоді, так і зараз - круте кіно.
Ваш часовий пояс: GMT + 2 Години

Нова тема   Відповісти