Завантажити та скачати торренти українською


Древо - Пісні з України (2 альбоми) (1998-2002) [FLAC] | Ethno

Нові коментарі

Нова тема   Відповісти
Останній раз роздавалося Greifie Lomion (2016-12-05)
Автор Повідомлення
kozak_nevada 
Свій


З нами з: 30.01.10
Востаннє: 02.12.16
Повідомлень: 63

2012-02-02 22:23  
Древо - Пісні з України (2 альбоми) (1998-2002) [FLAC] | Ethno

Древо - Пісні з України (2 альбоми) (1998-2002) [FLAC] | Ethno


Стиль: Ethno
Країна, місто: Польща, Варшава
Видавець: Koka
1998, Nr katalogowy: 028CD-3
2002, Nr katalogowy: 032CD-8

Виконавці:
Древо:
Євген Єфремов, Ірина Клименко, Тетяна Сопілка, Петро Товстуха,
Роман Яненко, Ганна Охрімчук, Сергій Охрімчук, Сузанна Карпенко

Пісні:
Пісні з України, 1998

Тривалість: 01:04:09
Бітрейт: 597 кб/с


    01. Ой у полі древо (лірична козацька) [0:04:57.58]
    02. Ой боровая зязюлєна (веснянка) [0:02:06.06]
    03. Летіла зозуля через мою хату (романс) [0:04:03.06]
    04. Дівко Галочко, чом гулять не йдеш (коляда для дівчини) [0:02:20.04]
    05. Ой на горі ячмєнь (лірична козацька) [0:05:14.08]
    06. Нука панове господарове - (коза - новорічна)
    07. Пане господарю, на твоєму дворі (коляда господарю)
    08. Ой одверни, Боже, хмару (жниварська на заклинання дощу)
    09. Як посіяв мужик ячмінь (лірична жартівлива)
    10. Що петрівочки дві неділечки (петрівка)
    11. Ой хоч воля, хоч неволя (лірична)
    12. На добридень (весільний марш)
    13. Да як вийду я на шпиль гори (веснянка)
    14. Ой з-за гори, та й з-за кручі (лірична чумацька)
    15. З-под каменя да вода (лірична)
    16. Ой краю милий, дея родився (лірична літературна)
log

Exact Audio Copy V1.0 beta 3 from 29. August 2011

EAC extraction logfile from 2. February 2012, 3:22

Древо / Пісні з України

Used drive : HL-DT-STRW/DVD GCC-4522B Adapter: 3 ID: 0

Read mode : Secure
Utilize accurate stream : Yes
Defeat audio cache : Yes
Make use of C2 pointers : No

Read offset correction : 6
Overread into Lead-In and Lead-Out : No
Fill up missing offset samples with silence : Yes
Delete leading and trailing silent blocks : No
Null samples used in CRC calculations : Yes
Used interface : Native Win32 interface for Win NT & 2000

Used output format : User Defined Encoder
Selected bitrate : 1024 kBit/s
Quality : High
Add ID3 tag : No
Command line compressor : C:\Soft Audio\Exact Audio Copy\Flac\flac.exe
Additional command line options : -V -8 -T "Date=%year%" -T "Genre=%genre%" %source%

TOC of the extracted CD

Track | Start | Length | Start sector | End sector
---------------------------------------------------------
1 | 0:00.00 | 4:57.58 | 0 | 22332
2 | 4:57.58 | 2:06.06 | 22333 | 31788
3 | 7:03.64 | 4:03.06 | 31789 | 50019
4 | 11:06.70 | 2:20.04 | 50020 | 60523
5 | 13:26.74 | 5:14.08 | 60524 | 84081
6 | 18:41.07 | 2:30.34 | 84082 | 95365
7 | 21:11.41 | 4:22.25 | 95366 | 115040
8 | 25:33.66 | 2:03.11 | 115041 | 124276
9 | 27:37.02 | 3:57.11 | 124277 | 142062
10 | 31:34.13 | 2:48.55 | 142063 | 154717
11 | 34:22.68 | 6:33.11 | 154718 | 184203
12 | 40:56.04 | 1:48.49 | 184204 | 192352
13 | 42:44.53 | 5:19.09 | 192353 | 216286
14 | 48:03.62 | 3:01.71 | 216287 | 229932
15 | 51:05.58 | 7:01.47 | 229933 | 261554
16 | 58:07.30 | 6:01.42 | 261555 | 288671

Range status and errors

Selected range

Filename S:\_Split cue\1998 Древо - Пісні з України.wav

Peak level 93.5 %
Extraction speed 2.1 X
Range quality 99.9 %
Test CRC A5D49014
Copy CRC 62ED2730
Copy OK

No errors occurred

AccurateRip summary

Track 1 not present in database
Track 2 not present in database
Track 3 not present in database
Track 4 not present in database
Track 5 not present in database
Track 6 not present in database
Track 7 not present in database
Track 8 not present in database
Track 9 not present in database
Track 10 not present in database
Track 11 not present in database
Track 12 not present in database
Track 13 not present in database
Track 14 not present in database
Track 15 not present in database
Track 16 not present in database

None of the tracks are present in the AccurateRip database

End of status report

==== Log checksum 358811317D40DA8E6A2D2E9C7B4F891FBB5B51F80B9795D683BECE75A445C6D6 ====
Пісні з України, 2002

Тривалість: 00:55:37
Бітрейт: 660 кб/с


    01. Ішов брат з сестрою (балада вечірня)
    02. Спився козак, спився (лірична)
    03. Дивная година по всім світі стала (Сирітка - псальма)
    04. Ой ти дубе кучерявий (лірична)
    05. Да думай, думай, дівчинонько (весільна)
    06. Весільний марш
    07. Повій вітре дорогою - Долом коники, долом (весільні)
    08. Марино, Марино (лірична)
    09. Попід мостом да трава ростом (лірична)
    10. Із-за гори да вітер повіває (лірична)
    11. Коло річки, коло броду (лірична)
    12. Летіла зозуля, на бережку сіла (лірична)
    13. Ой на горі жито (лірична козацька)
    14. Вигонь, мати, коваля з хати (танцювальна жартівлива)
    15. Гопак 'Дурибало' (танець)
    16. На Сіянській горі (кант)
log

Exact Audio Copy V1.0 beta 3 from 29. August 2011

EAC extraction logfile from 2. February 2012, 20:13

Древо / Пісні з України

Used drive : HL-DT-STRW/DVD GCC-4522B Adapter: 3 ID: 0

Read mode : Secure
Utilize accurate stream : Yes
Defeat audio cache : Yes
Make use of C2 pointers : No

Read offset correction : 6
Overread into Lead-In and Lead-Out : No
Fill up missing offset samples with silence : Yes
Delete leading and trailing silent blocks : No
Null samples used in CRC calculations : Yes
Used interface : Native Win32 interface for Win NT & 2000

Used output format : User Defined Encoder
Selected bitrate : 1024 kBit/s
Quality : High
Add ID3 tag : No
Command line compressor : C:\Soft Audio\Exact Audio Copy\Flac\flac.exe
Additional command line options : -V -8 -T "Date=%year%" -T "Genre=%genre%" %source%

TOC of the extracted CD

Track | Start | Length | Start sector | End sector
---------------------------------------------------------
1 | 0:00.00 | 3:03.41 | 0 | 13765
2 | 3:03.41 | 3:14.33 | 13766 | 28348
3 | 6:17.74 | 4:28.45 | 28349 | 48493
4 | 10:46.44 | 4:25.54 | 48494 | 68422
5 | 15:12.23 | 2:14.27 | 68423 | 78499
6 | 17:26.50 | 2:44.36 | 78500 | 90835
7 | 20:11.11 | 1:18.32 | 90836 | 96717
8 | 21:29.43 | 3:01.32 | 96718 | 110324
9 | 24:31.00 | 4:21.10 | 110325 | 129909
10 | 28:52.10 | 5:47.07 | 129910 | 155941
11 | 34:39.17 | 4:10.59 | 155942 | 174750
12 | 38:50.01 | 4:24.53 | 174751 | 194603
13 | 43:14.54 | 4:07.04 | 194604 | 213132
14 | 47:21.58 | 1:41.68 | 213133 | 220775
15 | 49:03.51 | 1:56.46 | 220776 | 229521
16 | 51:00.22 | 4:34.07 | 229522 | 250078

Range status and errors

Selected range

Filename S:\_Split cue\2002 Древо - Пісні з України.wav

Suspicious position 0:30:06
Suspicious position 0:30:24
Suspicious position 0:31:01
Suspicious position 0:31:16
Suspicious position 0:31:23
Suspicious position 0:32:00 - 0:32:01
Suspicious position 0:32:47
Suspicious position 0:32:50
Suspicious position 0:34:41
Suspicious position 0:34:44
Suspicious position 0:35:29
Suspicious position 0:35:37
Suspicious position 0:35:49 - 0:35:50
Suspicious position 0:36:01
Suspicious position 0:36:03 - 0:36:04
Suspicious position 0:36:08
Suspicious position 0:36:11 - 0:36:12
Suspicious position 0:36:14 - 0:36:16
Suspicious position 0:36:24 - 0:36:25
Suspicious position 0:36:28 - 0:36:30
Suspicious position 0:36:32 - 0:36:34
Suspicious position 0:36:36 - 0:36:38
Suspicious position 0:36:45 - 0:36:46
Suspicious position 0:36:49 - 0:36:51
Suspicious position 0:36:53
Suspicious position 0:36:56
Suspicious position 0:36:58
Suspicious position 0:37:01 - 0:37:02
Suspicious position 0:37:05 - 0:37:06
Suspicious position 0:37:09 - 0:37:11
Suspicious position 0:37:13 - 0:37:18
Suspicious position 0:37:20
Suspicious position 0:37:22
Suspicious position 0:37:24
Suspicious position 0:37:27
Suspicious position 0:37:29
Suspicious position 0:37:31
Suspicious position 0:37:34
Suspicious position 0:37:36 - 0:37:41
Suspicious position 0:37:46 - 0:37:47
Suspicious position 0:37:49 - 0:37:50
Suspicious position 0:37:56 - 0:37:57
Suspicious position 0:38:03
Suspicious position 0:38:05 - 0:38:10
Suspicious position 0:38:12
Suspicious position 0:38:17
Suspicious position 0:38:21
Suspicious position 0:38:29
Suspicious position 0:38:31
Suspicious position 0:38:33
Suspicious position 0:38:41 - 0:38:42
Suspicious position 0:38:51
Suspicious position 0:38:54 - 0:38:55
Suspicious position 0:39:03
Suspicious position 0:39:05 - 0:39:10
Suspicious position 0:39:12
Suspicious position 0:39:15
Suspicious position 0:39:17 - 0:39:21
Suspicious position 0:39:24 - 0:39:25
Suspicious position 0:39:32 - 0:39:35
Suspicious position 0:39:37 - 0:39:38
Suspicious position 0:39:41
Suspicious position 0:39:44 - 0:39:45
Suspicious position 0:39:47 - 0:39:51
Suspicious position 0:39:53 - 0:39:58
Suspicious position 0:40:00 - 0:40:05
Suspicious position 0:40:07 - 0:40:08
Suspicious position 0:40:11 - 0:40:22
Suspicious position 0:40:24
Suspicious position 0:40:26 - 0:40:28
Suspicious position 0:40:30 - 0:40:38
Suspicious position 0:40:40 - 0:40:43
Suspicious position 0:40:45 - 0:40:50
Suspicious position 0:40:52 - 0:40:57
Suspicious position 0:40:59 - 0:41:03
Suspicious position 0:41:05 - 0:41:11
Suspicious position 0:41:13 - 0:41:46
Suspicious position 0:41:48 - 0:42:17
Suspicious position 0:42:19 - 0:42:23
Suspicious position 0:42:25 - 0:42:56
Suspicious position 0:42:58 - 0:43:10
Suspicious position 0:43:14
Suspicious position 0:43:16 - 0:43:29
Suspicious position 0:43:31 - 0:43:56
Suspicious position 0:43:58 - 0:44:13
Suspicious position 0:44:15 - 0:45:32
Suspicious position 0:45:34 - 0:46:57
Suspicious position 0:46:59 - 0:47:17
Suspicious position 0:47:22 - 0:48:34
Suspicious position 0:48:36 - 0:48:42
Suspicious position 0:48:44 - 0:48:54
Suspicious position 0:48:56 - 0:48:57
Suspicious position 0:48:59
Suspicious position 0:49:06 - 0:49:16
Suspicious position 0:49:18 - 0:49:30
Suspicious position 0:49:33
Suspicious position 0:49:35 - 0:49:46
Suspicious position 0:49:48
Suspicious position 0:49:51
Suspicious position 0:49:54 - 0:49:56
Suspicious position 0:49:58 - 0:50:03
Suspicious position 0:50:05
Suspicious position 0:50:07 - 0:50:08
Suspicious position 0:50:19
Suspicious position 0:50:21
Suspicious position 0:50:23 - 0:50:24
Suspicious position 0:50:27
Suspicious position 0:50:29
Suspicious position 0:50:31
Suspicious position 0:50:33
Suspicious position 0:50:36 - 0:50:37
Suspicious position 0:50:41
Suspicious position 0:50:45
Suspicious position 0:51:07
Suspicious position 0:51:10

Peak level 100.0 %
Extraction speed 0.1 X
Range quality 94.9 %
Test CRC 18B39E23
Copy CRC 9F646CDB
Copy finished

There were errors

AccurateRip summary

Track 1 not present in database
Track 2 not present in database
Track 3 not present in database
Track 4 not present in database
Track 5 not present in database
Track 6 not present in database
Track 7 not present in database
Track 8 not present in database
Track 9 not present in database
Track 10 not present in database
Track 11 not present in database
Track 12 not present in database
Track 13 not present in database
Track 14 not present in database
Track 15 not present in database
Track 16 not present in database

None of the tracks are present in the AccurateRip database

End of status report

==== Log checksum DF4ACEC2CCDF8EA8A26D8E8BA60CB3D106B66B032F9F20483FD6A2605B2936A7 ====
Тривалість: 01:59:45
Мова: українська
Аудіо-кодек: FLAC
Бітрейт: ~630 кб/c
Джерело: Власний РІП дублікатів ориґінальних дисків

Додаткова інформація:
УМКА про гурт

Древо, фольклорний гурт — ансамбль дослідників і виконавців української народної музики. Існує з 1979 р. (під назвою "Древо" — від 1988). Керівник — етномузиколог Є. Єфремов. Своєю діяльністю фольклорний гурт Древо розпочав новий напрямок у музичній культурі України, продемонструвавши світові традиційну селянську музику українців як повноцінне й самобутнє мистецьке явище, що не потребує обов’язкової композиторської обробки. Учасники гурту — студенти, випускники та викладачі Київської консерваторії — першими в Україні взяли за мету глибоко пізнати, практично засвоїти та правдиво відтворювати народні пісні, зберігаючи у власному співі регіональні стилістичні риси досліджуваних традицій. Основною науковою базою та джерелом оригінального репертуару Древа стала активна експедиційна та науково-дослідницька робота учасників ансамблю на теренах Центрального та Західного Полісся, Лівобережного Подніпров’я, Східного Поділля. Важливим принципом роботи гурту є прагнення уникати механістичного копіювання здобутих в експедиціях музичних зразків. Пісня у виконанні Древа щоразу варіантно оновлюється, залишаючись водночас тою самою. Це стало можливим завдяки створеній Є. Єфремовим спеціальній методиці мелодичного варіювання, що базується на знайдених ним закономірностях побутування пісні в автентичному середовищі. Для творчої діяльності Древа характерним є сполучення глибокої наукової достовірності у відтворенні народної пісні — з власним виконавським стилем, академічного рівня майстерності — з імпровізаційною безпосередністю й емоційністю співу. Ансамбль є колективним автором та виконавцем музичної вистави "Кам’яне коло (ФОпера)" (реж. В. Троїцький, прем’єра — 09.2002), здійсненої як спільний проект Древа та театру в Центрі Сучасного Мистецтва "ДАХ" (керівник В. Троїцький). В результаті цієї співпраці згодом постав широко тепер відомий гурт ДахаБраха. Досвід Древа поширився й на інші фольклорні ансамблі, що виникали у 80–90-ті роки 20 ст. (часом, як відгалуження від Древа) - кіровоградська "Гілка", київські колективи "Володар", "Отава", "Божичі", ансамбль автентичної інструментальної музики "Надобридень" та інш. Особлива заслуга ансамблю – постійна дослідницька й виконавська увага до фольклору Чорнобильської зони. Крім того, на основі музичного матеріалу фольклорних експедицій гурту створено такі потужні мультімедійні диски, як "Берви", "Зелений шум Полісся". Під безпосереднім впливом Древа розпочався у 90-х роках фольклорний рух у Польщі. Учасники Древа ведуть майстер-класи з українського фольклорного співу в країнах Європи; ансамбль є постійним учасником спільних міжнародних проектів, радіо- та телепередач, наукових симпозіумів, Всеукраїнських та Міжнародних фестивалів, концертів (виступи у Бельгії, Грузії, Латвії, Литві, Німеччині, Польщі, Росії, Узбекістані, Франції). (www.umka.com.ua)
Древо: корені та листя. Ольга Ковалевська, 2009

Цього року «Древо» відзначає 30-річчя. Для фольклорного гурту це, погодьтеся, подія. За цей час тут переспівало багато людей. Більшість із них віддали сцені значну частину свого життя, зростали й формувалися як професіонали паралельно з розвитком колективу. Водночас у теперішньому складі є виконавці, молодші за віком від самого гурту. Значення цього ансамблю для української культури важко переоцінити – з нього розрісся потужний фольклорний рух. Але нам хотілося уникнути голосних слів та звичного переліку дат-подій. Для цього достатньо «гуглу». Цікаво ж насправді те, які соки живлять «Древо» стільки років. У приватних розмовах із основними його учасниками – теперішніми, колишніми та тими, які назавжди, – нам вдалося розкопати справжні корені «Древа». Історію Ансамблю Єфремова, як спочатку називалося «Древо», мабуть, слід починати з альтернативного фольклорного руху, який зародився в Пітері в 70-ті роки. Тоді ж невеличкий осередок зацікавлення народною музикою виник і в київській консерваторії. Зв’язок між російськими та українськими фольклористами в ті роки був не надто виразним. Консерваторським гуру вважали Володимира Олександровича Матвієнка – викладача музичної фольклору. Треба мати на увазі, що в академічному закладі народну музику традиційно вважали чимось «низьким» і на той час вона була представлена баяном (а це навіть не український інструмент) та бандурою. Тому природно, що не дуже багато студентів конси цим цікавилося. Втім, для теоретиків-першокурсників обов’язковою була поїздка у фольклорну експедицію. Саме ця поїздка «для галочки» стала вирішальною в житті майбутнього засновника «Древа» Євгена Єфремова, а згодом і для багатьох наступних учасників ансамблю. Протягом першого курсу Єфремов устиг побувати ще в кількох експедиціях. Але найбільше враження справили подорожі в село Крячківка Полтавської області та на
Білоруське Полісся.

Євген Єфремов: Крячківка мене захопила багатоголоссям. Я зрозумів – усе, що ми вивчали в консерваторії, має якісь інші закономірності. А тут жінки, котрі не знають нот, просто співають разом, як пташки в лісі, й це виходить настільки цікаво, несподівано, гармонійно... Потім ми були на Білоруському Поліссі. Це вже зовсім інше враження – дуже давньої, дрімучої лісової культури, яка ховається десь у непролазних хащах і болотах. Увечері ми з нашим керівником сиділи на лавці й записували якусь бабусю, котра погодилася співати. Тим часом із тяжкої роботи на полі поверталися люди – хто з косою, хто з граблями в руках. Вони зупинялися біля нашої лавки, слухали й приєднувалися до співу. Врешті-решт, усе село зійшлося, й усі співали ту пісню, яку першою почала бабуся. Я тоді мало що розумів у фольклорі, але інтуїтивно відчув дуже сильний контраст між традиціями Крячківки та Полісся. Весь час співав і вагався між ними.

Ці два регіони згодом стали основними джерелами репертуару «Древа». До речі, саме в Крячківці записали пісню «Ой, у полі древо», яка дала назву ансамблю. Євген Єфремов закінчив консерваторію, проте й далі їздив в експедиції все з новими й новими першокурсниками. Та співати особливо не було з ким – і він співав сам, годинами слухав із магнітофонних стрічок голосоведення старовинних пісень і намагався записати їх нотами. Були спроби згуртуватися з іншими захопленими фольклором, але тим, очевидно, ентузіазму надовго не вистачало.
Й ось улітку 1979 року в експедицію потрапили Валентина Пономаренко, яка тоді була на другому курсі (зараз вона директор видавництва «Музична Україна»), Олена Шевчук, яка залишилася в ансамблі й до цього часу, Поліна Арон та Галина Овчаренко. Їх дуже захопила жива стародавня традиція, й почалися розмови про спів гуртом. Приблизно в той час у Києві пройшли гастролі Ансамблю Дмітрія Покровского з Ленінграда – першого колективу, що виніс на сцену вражаючу автентичну манеру виконання. Це дуже посилило інтерес до фольклору. Повернувшись із канікул у вересні, дівчата запропонували Євгенові співати з ними й керувати цим гуртом. Але оскільки вчитися їм не було в кого, Єфремов повів їх тим шляхом, яким до цього йшов сам, – шляхом копіювання та імітування.

Олена Шевчук, науковець, фольклорна співачка, в «Древі» з 1979 року: Ми вчилися співати – з власного бажання, для душі. Всі були професіоналами, кожен мав свою спеціальність, здебільшого викладацьку, тож співу віддавався у вільний від роботи час. Тоді постійно проводили експедиції, набирали репертуар, ми жили спільними враженнями. Намагалися вжитися в музичний стиль кожного регіону й училися різних манер виконання. В середині 80-х у «Древі» почалися зміни. Стало зрозуміло, що не все складається добре. До того ж, природно, в людей уже чіткіше сформувалися власні інтереси. Через різні причини пішли попередні учасники, з’явились інші. В 1982 – 1984 роках до консерваторії вступили майбутні солісти «Древа». Серед них була теоретик Ірина Клименко. Пізніше прийшла Алла Загайкевич, яка вчилася на композиторському. Тоді ж повернувся з армії Петро Товстуха, також композитор. Петро Товстуха, композитор, диригент, піаніст, фольклорний співак, у «Древі» з 1986-го (телефоном із Одеси): Коли Алла Загайкевич привела мене в ансамбль, я одразу відчув, що це моя особлива, надзвичайно рідна стихія. Мабуть, кожна людина це відчуває, коли слухає народні пісні в правдивому сільському виконанні.

Звичайно, для мене це історична зустріч – із Єфремовим, із ансамблістами. Світ заповнився народною музикою, витоки якої правічні, значно давніші, стабільніші, рівніші, ніж сфери академічної музики. Ірина Клименко, науковець, фольклорна співачка, виступала в «Древі» 20 років (1984-2004): «Древо» – це був порив душі. Євген Єфремов ніколи не піклувався про продовження ансамблю, про піар... Навіть деякі речі, які самі йшли до рук, він відсилав, бо це його не цікавило. Його захоплював процес співу. Потім само так вийшло, що почали їздити за кордон. Це прийшло з повітря.

Євген Єфремов: Ми не дуже прагнули концертів. Один раз на рік або й рідше. Потім усе якось заглухло, ми розсіялися. З настанням незалежності відбулася комерціалізація певних галузей. Заснували українсько-канадське спільне підприємство, зробили кілька концертів. Пожвавилося фольклорне життя. З’явився ансамбль «Слобожани» в Харкові, зараз це «Муравський шлях», у Львові – «Родовід». У 88-му до нас прийшла Ганна Коропніченко. В цей період почалися фестивалі, концерти.

Алла Загайкевич, композитор, співала в «Древі» з 1986 до 2004-го: Переродження першого «Древа» припало на кінець 80-х років. Щойно почалися постійні концерти, в багатьох виникли сумніви, чи варто продовжувати таку діяльність. Коли ми збираємося собі тихенько, співаємо пісні, вивчаємо традицію й їздимо в експедиції – це одне життя. Коли ансамбль орієнтується на виступи концертні – це вже якийсь інший сенс існування. І тут з’явився певний конфлікт. Чи ми артисти, чи ми носії традиції, чи ми науковці. Це був момент перехідний, кризовий. Зокрема, Валентина Пономаренко одразу вийшла зі складу, коли почалася концертна діяльність. Вона вирішила для себе, що це неможливо.

Крім нових людей, на той час у складі «Древа» були Галина Овчаренко та Ніна Керімова, (Ніна потім поїхала до Кіровограда й там створила ансамбль «Гілка»). Згодом прийшла Тетяна Сопілка, зараз вона живе в Польщі. А також подружжя Сергій і Ганна Охрімчуки. Сергій Охрімчук, скрипаль, співає в «Древі» з 1991 року: Мене привів у «Древо» Віталій Протасов, нині директор філармонічного оркестру. Ми з ним жили разом у гуртожитку. Він їздив в експедиції на байдарках, потім мені розповідав. А я цікавився лише інструментальною музикою, й спочатку там просто тусувався. Ходили колядувати, справляли весілля… Але пісні запали в пам’ять підсвідомо, я знав усі тексти й партії.

Потім експедиції почалися. Перша моя поїздка була з Ірою Клименко – в село Старі Коні, Рівненське Полісся. Тоді вже не лишилося жодних шансів без цього жити. Співати в складі почав із року 98-го, а до того тільки грав. Можливо, завдяки тому, що зацікавився етнічною музикою, мене зараз так активно запрошують у різні проекти. Академічно-експериментальний напрямок також почав розвиватися після знайомства з Петром Товстухою та Аллою Загайкевич… «Древо» – це родина. Для мене це святе. Так утворився «зірковий» склад «Древа». Протягом тривалого часу він залишався практично незмінним.

Великою втратою для колективу стала смерть Романа Єненка, дуже талановитого співака та народного художника. З особистих причин колектив залишила чудова співачка Ганна Коропніченко. Ганна Коропніченко, педагог, науковець, фольклорна співачка, в «Древі» з 1989-го: Для мене «Древо» – це вагома частина мого життя. Завдяки «Древу» я знайшла справу, якій віддала всю себе. А для людини немає більшого щастя, ніж займатись улюбленою справою. І я вдячна Богові, що зі мною це сталося. Проте для того, щоб співати в такому колективі, треба цим горіти. Протягом багатьох років я «не вилазила» з магнітофона, з експедицій. Могла прокинутися вранці й годину співати все, що згадаю. Та згодом інтерес згас, зараз живу іншим. Звичайно, моя робота пов’язана з фольклором – я навчаю народній пісні майбутніх фахівців та любителів. Проте зараз сценічне виконавство в моєму житті не є пріоритетним...

Згодом до колективу приєдналася ще зовсім молода, але перспективна виконавиця Сусанна Карпенко, яка належала вже до іншого покоління фольклористів. Сусанна Карпенко, фольклорна співачка, в «Древі» з 1998 по 2002-й: Я потрапила в «Древо» в дуже вдалий час, як для мене. Якраз був період розквіту, коли в колективі зібралися надзвичайно сильні особистості. Всі – фольклористи, науковці й чудові виконавці. Це був сплав лідерів. Співпраця потенційних керівників – велике мистецтво. І вона може дати значні результати. Всі сильні, всі вміють, усі хочуть – і виходить бомба. Хоча, звичайно, такий склад не міг довго існувати, бо це вибухова суміш. Маючи такий досвід, багаж і потенціал, кожен хотів його поширити за межі колективу. Тому з цього квітника почали розвиватися багато фольклорних ансамблів.

Таким чином, від основного складу «Древа» відійшли Ірина Клименко (під її проводом виникли «Гуртоправці», які вже припинили своє існування) та Сусанна Карпенко (співала в «Гуртоправцях», потім із Іллею Фетисовим утворила гурт «Божичі»). Ірина Клименко: Я зрозуміла переваги авторитарної системи. Демократія плюс амбіції – це неможливо. Кожен починає «тягнути ковдру» на себе. Коли є якийсь гуру, умовно кажучи, авторитет, а всі інші – молодші чи роблять вигляд, що вони молодші, тоді цей корабель пливе. А якщо по-іншому – то розсипається на частини.

Сергій Охрімчук: Амбіції є і в селах – серед бабів і дідів. Конкуренція всюди. Це характерно особливо для жіночого складу. Чоловікам якось простіше – стоїш іноді «для мєбєлі». А в дівчат, я так думаю, хтось хоче виводити, хтось хоче заспівувати.

Алла Загайкевич: Загалом, це природна ситуація, коли якийсь ансамбль відділяється. Тому що, за спостереженнями фахівців, більше ніж 3 стилі виконавець не може охопити. Одна з причин, чому «Древо» почало «висипати» свої «листочки» – це неможливість опанувати велику кількість пісенних традицій. Окрім того, це гурт вокальний. А потрібні також гурти виключно інструментальні. Сама ж Алла Загайкевич вирішила зосередитися на електронній музиці: «В глибині душі я думаю, що фольклор і електроніка – для мене одне й те ж. Якась божевільна культура, необхідна для віддзеркалення тих академічних процесів, які відбуваються в моєму житті. Тому в мене дуже романтичне ставлення до цих речей. Розумію, фольклором треба займатися професійно. І в певну мить усвідомила, що не можу, бо мої електроакустичні речі переважили».

Олена Шевчук: У зрілий період «Древа» в кожного учасника визначилося щось у житті. Хтось виїхав, хтось сконцентрувався на власній роботі. В третьому десятиріччі оновився склад ансамблю, й це нормально, прийшла молодь. Зараз акцентуємо на репетиційній роботі, оскільки молоді треба багато працювати, щоб увійти в контекст гурту. «Древо» – це школа творчого зростання й самовдосконалення, оскільки колектив завжди вибирав найкрасивіші та водночас найскладніші пісні. Тому це потребує постійного вживання в стилі, роздумів над виконанням, народною музикою.

До теперішнього складу «Древа» входять: незмінний керівник Євген Єфремов, Олена Шевчук, Сергій та Ганна Охрімчуки, Віталій і Світлана Протасови. З молоді – Ігор Перевертнюк, Олексій Заєць, Дмитро Полячок, Тетяна Андрєєва, Ольга Чернишова. Хто з них стане майбутніми зірками «Древа», покаже час. Один із постійних учасників «Древа» Петро Товстуха вже п’ять років не живе в Києві. Втім, на ювілейний концерт у березні цього року він таки приїздив.

Петро Товстуха: Якщо пощастить, то знову житиму в Києві й повернуся до стабільного співіснування з ансамблем, зможу співати. Є плани щодо вивчення наших записів – козацької традиції Полтавщини, носії якої вже давно померли... Матеріал не просто рідкісний, деякі пісні записані в єдиному виконавському варіанті. Й ми, звичайно, хотіли б їх відтворити. Репертуарно вони просто дивовижні, чарівні, безкінечні, глибокі, такі бездоганно продумані як музично, так і гармонійно, бездоганно виконані. Ми записали дуже велику кількість пісень, але вивчили просто мізерну, якихось там кілька десятків.

Євген Єфремов: Маю таку мрію – об’їздити з концертами Україну. В першу чергу, ті села, де ми були в експедиціях. Для людей, особливо переселенців. Вони відірвані від своєї землі, такі бідні там. Але приїхати не для того, щоб утішати. Просто вони думають, що ці пісні – щось нікому не потрібне, віджиле. В них занижена повага до того, що вони знають. І наші виступи потрібні, аби підняти цю повагу. Треба показати їм, що нам подобаються їхні пісні, що вони для нас мають велику цінність.

(Кконтрапункт онлайн: http://key2noise.blogspot.com/2011/07/blog-post_28.html)
Польські медіа про альбом 1998 року

DREWO jest prekursorem nurtu "muzyki autentycznej" na Ukrainie. Powstalo w roku 1979 w Kijowie. To z niego wyrosla HILKA, ktorej zalozycielka zdobywala wczesniej szlify w DREWIE. Idea laczaca tworcow tego nurtu ma te same zrodla - upowszechnianie oryginalnej wiejskiej muzyki w jej naturalnej, pozbawionej stylizacji postaci, a przy tym dosc niekonwencjonalne podejscie do badan naukowych. Repertuar DREWA to piesni obrzedowe, liryczne i ballady glownie z Polesia i Lewobrzeza - regionow, gdzie mozna odnalezc najstarsze i najbogatsze brzemieniowo wzorce; wykonywany z niezwykla dbaloscia o pierwowzor, z wszelkimi charakterystycznymi dla regionu niuansami. Zespol tworza studenci i absolwenci Akademii Muzycznej. Sa wsrod nich instrumentalisci, dyrygenci, kompozytorzy - ale laczy ich umilowanie autentycznego folkloru. Kierownikiem zespolu jest etnomuzykolog, doktor historii sztuki - Jewhen Jefremow. Wydanie DREWA to zaszczyt dla KOKI. (wsm.serpent.pl/sklep/albumik.php,alb_id,89)

Najwieksze wydawnicze osiagniecie Koki promujacej w Polsce muzyke ukrainska. Zestaw odtworzonych z etnograficzna pasja obrzedowych i liturgicznych piesni Ukrainy. Uchwycona na goraco magia muzyki etno. Niesamowite harmonie wokalne laczace korzenny, poganski zywiol z bliskim piesniom cerkiewnym wzlatujacym do nieba sakralnym uduchowieniem. Czyste, surowe piekno. Rewelacja. — Rafal Ksiezyk (Recenzja z Brumu 9/98)

(...) Muzyka jest oszalamiajaco piekna. Dostarcza nam jednak czegos wiecej niz tylko doznan estetycznych. Swym spiewem Drewo nie tylko przybliza tradycje Ukrainy, ale i - moze to zabrzmi patetycznie, ale tak wlasnie jest - wyraza ducha slowianszczyzny. Ta muzyka cos w nas porusza - cos, co tkwi gleboko, pogrzebane pod stosem narzuconych przez kulture McDonalda wzorcow zachowan, pragnien, wrazliwosci. Sluchajac spiewu Drewa, jestesmy bardziej swiadomi swojej tozsamosci. — Olaf Szewczyk (Gazeta Stoleczna ?/2000)

(...) W tradycyjnej kulturze spiew jest nie tylko sposobem porozumienia z ludzmi, ale przede wszystkim z natura. Nastroj rozleglej przestrzeni ukrainskich stepow znajduje swoj dzwiekowy obraz w ludowej muzyce - dlugie frazy, melodie przejmowane przez kolejne glosy, budujace rodzaj archaicznej, ale przeciez kunsztownej polifonii. (...) Przenika je nastroj powagi, solennosci, ktory plynie z ich zrodla - rytualu. I stad tez ich transowa monotonia. Te cechy rozwodnily sie w niedawnych latach, kiedy upiekszano folklor pod gusta miejskiego odbiorcy. Drewo przywraca mu jego pierwotna postac. — Jan Kawiorski (Tygodnik Powszechny, 4.10.1998)
Якщо Ви справді бажаєте підтримати українське - після прослуховування, якщо музика вам сподобалась, придбайте ліцензійний диск. Підтримаймо вітчизняних виконавців!


 Трекер:    Зареєстрований   

Завантажити / скачати українську музику



відео для новачків



 Зареєстрований:   2012-02-02 22:24
 Розмір:   537 MB 
 Оцінка музики:   10/10 (Голосів: 12)
   
ssTAss 
Модератор музики


З нами з: 05.07.08
Востаннє: 06.12.16
Повідомлень: 10946

2012-02-02 23:37  
kozak_nevada написано:
Древо - Пісні з України (2 альбоми 1998, 2002) [FLAC] | Автентика

назва
Древо - Пісні з України (2 альбоми) (1998-2002) [FLAC] | Ethno
kozak_nevada написано:
Сайти:

якщо немає офіційного - стрічку прибрати
kozak_nevada написано:

Тривалість:
1998 – 01:04:08,72
2002 – 00:55:37,29

тут пишемо загальну тривалість двох альбомів (і без мілісекунд)
а під спойлером до кожного альбому додати обкладинку, тривалість, бітрейт і лог
kozak_nevada написано:
Бітрейт: 1998 – 597 кб/с, 2002 – 660 кб/с

Бітрейт: ~630 кб/c
kozak_nevada написано:

Test CRC A5D49014
Copy CRC 62ED2730

?????
може спробувати переріпати?
про другий диск взагалі мовчу...

kozak_nevada 
Свій


З нами з: 30.01.10
Востаннє: 02.12.16
Повідомлень: 63

2012-02-02 23:44  
Як додати обкладинку безпосередньо?
Другий диск ріпався 18 годин. Диски мені подарували давненько. І ними користувалися й користувалися. Кращих ріпів поки що в мережі немає. Чим багаті...
Та й якість звуку дуже добра
Решта вже виправлено

kntga 
Частий відвідувач


З нами з: 15.03.11
Востаннє: 06.12.16
Повідомлень: 27

2012-02-03 21:18  
Дякую! Приємно, коли є можливість, отримувати якістні записи улюблених гуртів та виконавців. Нажаль зараз майже неможливо придбати диски таких гуртів як Древо, особливо виданих за кордоном. Umka і Наш формат вже порожні, Арт-Вертеп у моєму місті окрім Божичів із автентики нічого не мають. Отже ще раз дякую.
ssTAss 
Модератор музики


З нами з: 05.07.08
Востаннє: 06.12.16
Повідомлень: 10946

2012-02-03 23:08  
kozak_nevada написано:
Як додати обкладинку безпосередньо?

залийте на imageshack, наприклад, і тут вставте посилання

kntga 
Частий відвідувач


З нами з: 15.03.11
Востаннє: 06.12.16
Повідомлень: 27

2012-02-05 18:05  
З приводу якості. Як на слух, ці копії майже не відрізняються від існуючіх в мережі копій у форматі mp3 192 kb/s.
ssTAss 
Модератор музики


З нами з: 05.07.08
Востаннє: 06.12.16
Повідомлень: 10946

2012-11-28 01:05  
через спектр і неякісний ріп
kozak_nevada написано:

Test CRC 18B39E23

Copy CRC 9F646CDB

kozak_nevada написано:

Test CRC A5D49014

Copy CRC 62ED2730

знімаю метал
тут http://toloka.to/t41757#torrent кращий варіант

Ваш часовий пояс: GMT + 2 Години

Нова тема   Відповісти