Завантажити та скачати торренти українською


Зведи мене з розуму / Drive Me Crazy (1999)

Нові коментарі

Нова тема   Відповісти
Автор Повідомлення
Віктор 
Відео Гуртом - субтитрування
Відео Гуртом - субтитрування


З нами з: 09.01.10
Востаннє: 08.12.16
Повідомлень: 8663

2012-02-02 13:28  
Зведи мене з розуму / Drive Me Crazy (1999)




«The last guy she wants is the only one she needs.»


Жанр: комедія, драма, романтичний
Країна: США



Кіностудія / кінокомпанія: Twentieth Century Fox Film Corporation, Amy Robinson Productions, Grand March Productions
Режисер: Джон Шультц (John Schultz)
Композитор: Ґреґ Кендалл (Greg Kendall)
Актори: Мелісса Джоан Гарт (Melissa Joan Hart), Едріан Ґрен’єр (Adrian Grenier), Кріс Парк (Kris Park), Елі Лартер (Ali Larter), Марк Вебер (Mark Webber), Ґабріель Карпентер (Gabriel Carpenter) та інші.

Сюжет:
Двоє старшокласників, Чейз і Ніколь, посварилися зі своїми коханими. Чейз ненавидить зразково-показові традиції, правила та устрій школи, підготовлюваної до столітнього ювілею, а Ніколь, навпаки, відповідає за організацію балу з нагоди цього ювілею, на який повинні з’явитися всі випускники і батьки. Для того, щоб Чейз міг повернути кохання своєї дівчини, а Ніколь піти на бал з баскетболістом Бреттом, вони починають зображувати пару і незабаром, несподівано для самих себе, закохуються один в одного.
Цікаві факти

• Фільм знятий за романом Тодда Страссера "Як я створив ідеальну дівчину для випускного балу" ("How I Created My Perfect Prom Date").
Елайджа Вуд пробувався на роль Чейза.
• Стівен Коллінз і Фей Ґрант, героїні Меліси, які грають батьків Джоан Герт, одружені і в житті.
• Сцени були зняті в школі яка реально існує Ogden High School (Огдена, Юту).
• Первинна назва картини - "Next to You".
• Бюджет - $8 500 000
MediaInfo

Код:
General
Complete name                    : D:\HURTOM\Drive Me Crazy (1999) [Ukr] [Hurtom]\Drive Me Crazy (1999) [Ukr] [Hurtom].avi
Format                           : AVI
Format/Info                      : Audio Video Interleave
File size                        : 1.45 GiB
Duration                         : 1h 31mn
Overall bit rate                 : 2 282 Kbps
Movie name                       : Зведи мене з розуму / Drive Me Crazy (1999)
Director                         : kingsize87
Writing application              : VirtualDubMod 1.5.10.2 (build 2542/release)
Writing library                  : VirtualDubMod build 2542/release
Copyright                        : HQCLUB
Comment                          : 02.02.2012

Video
ID                               : 0
Format                           : MPEG-4 Visual
Format profile                   : Advanced [email protected]
Format settings, BVOP            : 1
Format settings, QPel            : No
Format settings, GMC             : No warppoints
Format settings, Matrix          : Custom
Codec ID                         :
Codec ID/Hint                    :
Duration                         : 1h 31mn
Bit rate                         : 1 825 Kbps
Width                            : 704 pixels
Height                           : 384 pixels
Display aspect ratio             : 16:9
Frame rate                       : 23.976 fps
Color space                      : YUV
Chroma subsampling               : 4:2:0
Bit depth                        : 8 bits
Scan type                        : Progressive
Compression mode                 : Lossy
Bits/(Pixel*Frame)               : 0.282
Stream size                      : 1.16 GiB (80%)
Writing library                  : 64

Audio
ID                               : 1
Format                           : AC-3
Format/Info                      : Audio Coding 3
Mode extension                   : CM (complete main)
Codec ID                         : 2000
Duration                         : 1h 31mn
Bit rate mode                    : Constant
Bit rate                         : 448 Kbps
Channel(s)                       : 6 channels
Channel positions                : Front: L C R, Side: L R, LFE
Sampling rate                    : 48.0 KHz
Bit depth                        : 16 bits
Compression mode                 : Lossy
Stream size                      : 292 MiB (20%)
Alignment                        : Split accross interleaves
Interleave, duration             : 42 ms (1.00 video frame)
Interleave, preload duration     : 500 ms
Всі наявні релізи

(1.45 GB) - двоголосий закадровий Новий Канал

Ролі озвучили: Євген Пашин?
Тривалість: 01:31:15
Якість:
Відео:
кодек:
розмір кадру: 704x384 (1.83:1)
бітрейт: 1825 кб/с

Аудіо:
мова: українська
переклад: двоголосий закадровий Новий Канал
кодек: 5.1
бітрейт: 448 кб/с

Субтитри:
мова: українська (на місцинку без перекладу -44 фрази)
тип: програмні (м’які)
формат: *.srt

Скріншоти :





Увага, у фільмі є місцинка без перекладу, до неї є укр. субтитри, які відтворюються автоматично. Тому, на питання,- а чому не весь фільм озвучено, не відповідатиму.



За синхронізацію доріжки 5.1 подяка Lan-y,
за запис звуку з тб подяка Hulk1987


Джерело: &
Особиста оцінка: не дивився


Срібний реліз (на рейтинг впливає 50% завантаженого)
 Трекер:    Зареєстрований   

Завантажити / скачати фільм українською



відео для новачків



 Зареєстрований:   2012-02-02 21:36
 Розмір:   1.45 GB 
 Оцінка фільму:   7.6/10 (Голосів: 13)
   
Інші релізи
Віктор 
Відео Гуртом - субтитрування
Відео Гуртом - субтитрування


З нами з: 09.01.10
Востаннє: 08.12.16
Повідомлень: 8663

2012-02-02 13:29  
На двд9 є укр саб., але мені сказали, що витягнути їх звідтіля не можливо.
DiGen 
Модератор HD та координатор Команди HD
Модератор HD та координатор Команди HD


З нами з: 12.11.09
Востаннє: 24.06.13
Повідомлень: 1452

2012-02-02 14:12  
w2958l написано:
Drive Me Crazy
, а 720р викладати будеш?
Віктор 
Відео Гуртом - субтитрування
Відео Гуртом - субтитрування


З нами з: 09.01.10
Востаннє: 08.12.16
Повідомлень: 8663

2012-02-02 14:35  
DiGen написано:
а 720р викладати будеш?

ні.

bot 
робот


З нами з: 30.09.07
Востаннє: 26.05.05
Повідомлень: 16031

2012-02-02 21:35  
Тему перенесено з Анонси релізів від Відео Гуртом до форуму Фільми


w2958l

Tarasyk 
Відео Гуртом - фільмокрай
Відео Гуртом - фільмокрай


З нами з: 26.08.09
Востаннє: 28.11.16
Повідомлень: 5972

2012-02-02 21:50  
Перший реліз в SD ? Happy Не впізнаю... Wide grin
Віктор 
Відео Гуртом - субтитрування
Відео Гуртом - субтитрування


З нами з: 09.01.10
Востаннє: 08.12.16
Повідомлень: 8663

2012-02-02 21:53  
Tarasyk написано:
Перший реліз в SD ? Happy Не впізнаю... Wide grin

Чому ж, я чимало субтитрованих в SD викладаю.)

praysu 
Забанено
Забанено


З нами з: 22.05.08
Востаннє: 13.11.13
Повідомлень: 119

2012-02-03 09:18  
Чудовый фильм рекомендую
BOLERO 
Модератор серіалів


З нами з: 17.09.08
Востаннє: 07.12.16
Повідомлень: 660

2012-02-04 00:15  
"-Я забув, зіниці мають зменшуватись чи збільшуватись?
- Це залежить від яких наркотиків)))"

"-Ти під кайфом?
- може було б доречніше сказати - чи ти не захворів?
- ти не захворів?
- Ні.
- то ти під кайфом?"

XD
фільм файний, є досить кумедних моментів)

karvai0 
Відео Гуртом - запис з ТБ
Відео Гуртом - запис з ТБ


З нами з: 18.01.10
Востаннє: 09.09.16
Повідомлень: 3686

2012-05-02 19:11  
на вікі є запис з 1+1
Віктор 
Відео Гуртом - субтитрування
Відео Гуртом - субтитрування


З нами з: 09.01.10
Востаннє: 08.12.16
Повідомлень: 8663

2012-05-02 19:17  
karvai0 написано:
на вікі є запис з 1+1

Сирець в мене.) Озвучка інша Завадський і Перенчук. Може ще новий покаже, щоб залатати прогалину. Тоді можна й оновити з двома укр.

Ваш часовий пояс: GMT + 2 Години

Нова тема   Відповісти