Завантажити та скачати торренти українською


Dark Ages - A Chronicle of the Plague (2006) [FLAC] | Dark Ambient

Нові коментарі

Нова тема   Відповісти
Останній раз роздавалося Myfordownloads (2016-10-05)
Автор Повідомлення
Lev 
VIP


З нами з: 14.10.09
Востаннє: 28.11.16
Повідомлень: 1819

2012-02-02 12:12  
Dark Ages - A Chronicle of the Plague (2006) [FLAC] | Dark Ambient

Dark Ages - A Chronicle of the Plague (2006) [FLAC] | Dark Ambient


Стиль: Dark Ambient
Країна, місто: Україна, Харків
Видавець: Supernal Music (Велика Британія)
Виконавці:
Роман Саєнко - вся музика
Пісні:
    01. Ships Full Of Blackened Corpses (06:31)
    02. Rats (03:34)
    03. Blessed Be The Waters Of the Avignon River (03:25)
    04. The Doors With Scarlet Crosses (02:59)
    05. Black Death (06:54)
    06. Dead Desolate Villages (04:03)
    07. Dreams In Yellow (04:29)

Тривалість: 00:31:55
Мова: нема
Аудіо-кодек: FLAC
Бітрейт: 603-913 кб/с
Джерело: рутрекер
Додаткова інформація:
log EAC
Exact Audio Copy V1.0 beta 3 from 29. August 2011

EAC extraction logfile from 30. December 2011, 19:56

A Chronicle of the Plague / Dark Ages

Used drive : HL-DT-STDVDRAM GSA-T20N Adapter: 0 ID: 0

Read mode : Secure
Utilize accurate stream : Yes
Defeat audio cache : Yes
Make use of C2 pointers : No

Read offset correction : 667
Overread into Lead-In and Lead-Out : No
Fill up missing offset samples with silence : Yes
Delete leading and trailing silent blocks : No
Null samples used in CRC calculations : Yes
Used interface : Native Win32 interface for Win NT & 2000
Gap handling : Appended to previous track

Used output format : User Defined Encoder
Selected bitrate : 128 kBit/s
Quality : High
Add ID3 tag : No
Command line compressor : C:\Program Files\Exact Audio Copy\FLAC\FLAC.EXE
Additional command line options : -V -8 -T "Genre=%genre%" -T "Artist=%artist%" -T "Title=%title%" -T "Album=%albumtitle%" -T "Date=%year%" -T "Tracknumber=%tracknr%" -T "Comment=%comment%" %source%

TOC of the extracted CD

Track | Start | Length | Start sector | End sector
---------------------------------------------------------
1 | 0:00.00 | 6:30.56 | 0 | 29305
2 | 6:30.56 | 3:33.46 | 29306 | 45326
3 | 10:04.27 | 3:25.04 | 45327 | 60705
4 | 13:29.31 | 2:58.51 | 60706 | 74106
5 | 16:28.07 | 6:53.66 | 74107 | 105147
6 | 23:21.73 | 4:03.15 | 105148 | 123387
7 | 27:25.13 | 4:28.43 | 123388 | 143530

Track 1

Filename D:\раздача\Dark Ages - 2006 - A Chronicle of the Plague\01. Dark Ages - Ships Full of Blackened Corpses.wav

Pre-gap length 0:00:02.00

Peak level 97.0 %
Extraction speed 2.4 X
Track quality 99.9 %
Test CRC EE5DEFF8
Copy CRC EE5DEFF8
Accurately ripped (confidence 2) [A187A068] (AR v1)
Copy OK

Track 2

Filename D:\раздача\Dark Ages - 2006 - A Chronicle of the Plague\02. Dark Ages - Rats.wav

Pre-gap length 0:00:02.00

Peak level 97.0 %
Extraction speed 2.8 X
Track quality 100.0 %
Test CRC C1645D9D
Copy CRC C1645D9D
Accurately ripped (confidence 2) [58977C36] (AR v1)
Copy OK

Track 3

Filename D:\раздача\Dark Ages - 2006 - A Chronicle of the Plague\03. Dark Ages - Blessed Be The Waters Of the Avignon River.wav

Pre-gap length 0:00:02.00

Peak level 97.0 %
Extraction speed 3.0 X
Track quality 100.0 %
Test CRC 027385CC
Copy CRC 027385CC
Accurately ripped (confidence 2) [915627B2] (AR v1)
Copy OK

Track 4

Filename D:\раздача\Dark Ages - 2006 - A Chronicle of the Plague\04. Dark Ages - The Doors with Scarlet Crosses.wav

Pre-gap length 0:00:02.00

Peak level 97.0 %
Extraction speed 3.1 X
Track quality 100.0 %
Test CRC 3002AF18
Copy CRC 3002AF18
Accurately ripped (confidence 2) [827E67BF] (AR v1)
Copy OK

Track 5

Filename D:\раздача\Dark Ages - 2006 - A Chronicle of the Plague\05. Dark Ages - Black Death.wav

Pre-gap length 0:00:02.00

Peak level 97.0 %
Extraction speed 3.7 X
Track quality 100.0 %
Test CRC A039FB59
Copy CRC A039FB59
Accurately ripped (confidence 2) [A19547CC] (AR v1)
Copy OK

Track 6

Filename D:\раздача\Dark Ages - 2006 - A Chronicle of the Plague\06. Dark Ages - Dead Desolate Villages.wav

Pre-gap length 0:00:02.00

Peak level 97.0 %
Extraction speed 3.8 X
Track quality 100.0 %
Test CRC AF8ADD82
Copy CRC AF8ADD82
Accurately ripped (confidence 2) [81BB6313] (AR v1)
Copy OK

Track 7

Filename D:\раздача\Dark Ages - 2006 - A Chronicle of the Plague\07. Dark Ages - Dreams In Yellow.wav

Pre-gap length 0:00:02.00

Peak level 97.0 %
Extraction speed 3.6 X
Track quality 99.9 %
Test CRC 491A0D5E
Copy CRC 491A0D5E
Accurately ripped (confidence 3) [2FCA9B98] (AR v1)
Copy OK

All tracks accurately ripped

No errors occurred

End of status report

==== Log checksum F3B190E6654E8128836EC3D5EA5324AAA8458A6A0BF30040288F3A74F99B2D8A ====
Dark Ages - це мінімалістичний dark ambient проект Романа Саєнка - лідера груп Drudkh, Blood of Kingu та Hate Forest. Музичні композиції натхнені історією середньовічної Європи. Перед вами другий лонгплей проекту у найкращій якості, зріпаний з оригінального диску.


Також на Торрент-Толоці Гуртом ви можете знайти :

Dark Ages - Twilight Of Europe (2005) [FLAC]

Dark Ages - The Tractatus De Hereticis Et Sortilegiis (2011) [MP3]


Якщо Ви справді бажаєте підтримати українське - після прослуховування, якщо музика вам сподобалась, придбайте ліцензійний диск. Підтримаймо вітчизняних виконавців!


Срібний реліз (на рейтинг впливає 50% завантаженого)
 Трекер:    Зареєстрований   

Завантажити / скачати українську музику



відео для новачків



 Зареєстрований:   2012-02-02 12:12
 Розмір:   170 MB 
 Оцінка музики:   10/10 (Голосів: 3)
   
ssTAss 
Модератор музики


З нами з: 05.07.08
Востаннє: 02.12.16
Повідомлень: 10928

2012-02-02 16:49  
Lev написано:
Бітрейт: lossless

вкажіть числове значення

Lev 
VIP


З нами з: 14.10.09
Востаннє: 28.11.16
Повідомлень: 1819

2012-02-02 23:59  
ssTAss написано:
вкажіть числове значення


є

Ваш часовий пояс: GMT + 2 Години

Нова тема   Відповісти