Завантажити та скачати торренти українською


Ковбої проти прибульців [Pозширена версія] / Cowboys & Aliens [Extended Cut] (2011) 720p Ukr/Eng | Sub Eng

Нові коментарі

Нова тема   Відповісти
Автор Повідомлення
braveboy 
Відео Гуртом - команда HD
Відео Гуртом - команда HD


З нами з: 15.06.10
Востаннє: 29.10.16
Повідомлень: 958

2012-02-02 05:57  
Ковбої проти прибульців [Pозширена версія] / Cowboys & Aliens [Extended Cut]
(2011) 720p Ukr/Eng | Sub Eng

Ковбої проти прибульців [Pозширена версія] / Cowboys & Aliens [Extended Cut] (2011) 720p Ukr/Eng | Sub Eng


Жанр: екшн, фантастика, трилер
Країна: США




Кіностудія / кінокомпанія: Universal Pictures, DreamWorks Pictures, Reliance Entertainment, Relativity Media, Imagine Entertainment, K/O Paper Products, Fairview Entertainment, Platinum Studios; мейджор – Universal Pictures International (UPI)
Режисер: Джон Фавро (Jon Favreau)
Актори: Олівія Вайлд (Olivia Wilde), Гаррісон Форд (Harrison Ford), Деніел Крейґ (Daniel Craig), Ноа Рінґер (Noah Ringer), Сем Роквелл (Sam Rockwell), Пол Дано (Paul Dano), Ана де ла Реґуера (Ana de la Reguera), Кленсі Браун (Clancy Brown) та інші.


Сюжет:
Незнайомець бреде висохлою пустелею Арізони - сам не пам'ятає, хто він і звідки, сам не знає, куди йде. Доля виводить його на дорогу до міста Прощення, яким залізною рукою керує полковник Долархайд, наводячи страх на всіх його мешканців. Та є сила більша за кольти посіпак полковника - на місто падає космічний десант прибульців-мародерів і лише незнайомець, до якого потроху починає повертатись пам'ять, є останнім шансом мешканців міста на порятунок.



Тривалість: 02:15:13
Якість: 720p
Відео:
кодек:
розмір кадру: 1280 x 528
бітрейт: 3870 кб/с

Аудіо # 1:
мова: українська
переклад: професійний дубльований
кодек: 5.1
бітрейт: 384 кб/с

Аудіо # 2:
мова: англійська
переклад: оригінал
кодек: 5.1
бітрейт: 768 кб/с

Джерело озвучення:


Субтитри:
мова: українська (Forced)
тип: програмні (м'які)
формат: *.srt

Субтитри:
мова: англійська
тип: програмні (м'які)
формат: *.srt
MediaInfo
General
Unique ID : 198741880089082097046977953547467492093 (0x95844B36EB1B4DAB8B33A8AB943A0AFD)
Complete name : E:\Temp\Cowboys & Aliens [Extended Cut] (2011) [Ukr,Eng Sub Eng] 720p [HURTOM].mkv
Format : Matroska
Format version : Version 2
File size : 4.73 GiB
Duration : 2h 15mn
Overall bit rate : 5 008 Kbps
Encoded date : UTC 2012-02-02 03:27:25
Writing application : mkvmerge v5.0.1 ('Es ist Sommer') built on Oct 9 2011 11:55:43
Writing library : libebml v1.2.2 + libmatroska v1.3.0

Video
ID : 1
Format : AVC
Format/Info : Advanced Video Codec
Format profile : [email protected]
Format settings, CABAC : Yes
Format settings, ReFrames : 8 frames
Codec ID : V_MPEG4/ISO/AVC
Duration : 2h 15mn
Bit rate : 3 870 Kbps
Width : 1 280 pixels
Height : 528 pixels
Display aspect ratio : 2.40:1
Frame rate : 23.976 fps
Color space : YUV
Chroma subsampling : 4:2:0
Bit depth : 8 bits
Scan type : Progressive
Bits/(Pixel*Frame) : 0.239
Stream size : 3.56 GiB (75%)
Title : Cowboys And Aliens By (2011) 720p
Writing library : core 116 r2074 2641b9e
Encoding settings : cabac=1 / ref=8 / deblock=1:-3:-3 / analyse=0x3:0x113 / me=umh / subme=9 / psy=1 / psy_rd=0.84:0.00 / mixed_ref=1 / me_range=32 / chroma_me=1 / trellis=1 / 8x8dct=1 / cqm=0 / deadzone=21,11 / fast_pskip=0 / chroma_qp_offset=-2 / threads=3 / sliced_threads=0 / nr=0 / decimate=0 / interlaced=0 / bluray_compat=0 / constrained_intra=0 / bframes=6 / b_pyramid=2 / b_adapt=2 / b_bias=0 / direct=1 / weightb=1 / open_gop=0 / weightp=2 / keyint=250 / keyint_min=23 / scenecut=40 / intra_refresh=0 / rc_lookahead=40 / rc=2pass / mbtree=1 / bitrate=3870 / ratetol=1.0 / qcomp=0.60 / qpmin=10 / qpmax=51 / qpstep=4 / cplxblur=20.0 / qblur=0.5 / ip_ratio=1.40 / aq=1:1.00
Language : English
Default : Yes
Forced : No

Audio #1
ID : 2
Format : AC-3
Format/Info : Audio Coding 3
Mode extension : CM (complete main)
Codec ID : A_AC3
Duration : 2h 15mn
Bit rate mode : Constant
Bit rate : 384 Kbps
Channel(s) : 6 channels
Channel positions : Front: L C R, Side: L R, LFE
Sampling rate : 48.0 KHz
Bit depth : 16 bits
Compression mode : Lossy
Stream size : 371 MiB (8%)
Title : 5.1 @ 448 kbps
Language : Ukrainian
Default : Yes
Forced : No

Audio #2
ID : 3
Format :
Format/Info : Digital Theater Systems
Codec ID : A_DTS
Duration : 2h 15mn
Bit rate mode : Constant
Bit rate : 755 Kbps
Channel(s) : 6 channels
Channel positions : Front: L C R, Side: L R, LFE
Sampling rate : 48.0 KHz
Bit depth : 24 bits
Compression mode : Lossy
Stream size : 730 MiB (15%)
Title : 5.1 @ 768 kbps
Language : English
Default : No
Forced : No

Text #1
ID : 4
Format : UTF-8
Codec ID : S_TEXT/UTF8
Codec ID/Info : UTF-8 Plain Text
Title : Forced
Language : Ukrainian
Default : Yes
Forced : No

Text #2
ID : 5
Format : UTF-8
Codec ID : S_TEXT/UTF8
Codec ID/Info : UTF-8 Plain Text
Title : SDH
Language : English
Default : No
Forced : No
Скріншоти






Особиста оцінка: 0 - не дивився


 Трекер:    Зареєстрований   

Завантажити / скачати фільм українською



відео для новачків



 Зареєстрований:   2012-02-02 05:59
 Розмір:   4.73 GB 
 Оцінка фільму:   8.8/10 (Голосів: 26)
   
leroykendall 
Модератор HD


З нами з: 03.01.11
Востаннє: 20.11.16
Повідомлень: 749

2012-02-02 08:55  
Ця версія на 17 хвилин довша за театральну.
Можна було б ще українські повні субтитри додати.

Додано через 28 секунд:

Дякую за реліз. Забираю.

braveboy 
Відео Гуртом - команда HD
Відео Гуртом - команда HD


З нами з: 15.06.10
Востаннє: 29.10.16
Повідомлень: 958

2012-02-02 09:15  
leroykendall написано:

Ця версія на 17 хвилин довша за театральну.
Можна було б ще українські повні субтитри додати.


я б додав але нажаль до розширено версії їх немає

leroykendall 
Модератор HD


З нами з: 03.01.11
Востаннє: 20.11.16
Повідомлень: 749

2012-02-02 09:22  
gladunyak написано:
я б додав але нажаль до розширено версії їх немає

Так то правда. Треба було б якось зклеювати...

braveboy 
Відео Гуртом - команда HD
Відео Гуртом - команда HD


З нами з: 15.06.10
Востаннє: 29.10.16
Повідомлень: 958

2012-02-02 09:27  
leroykendall написано:
Так то правда. Треба було б якось зклеювати...

можна було взяти саби з театрал. версії і вставити в розш. верс. але це займе багато часу

praysu 
Забанено
Забанено


З нами з: 22.05.08
Востаннє: 13.11.13
Повідомлень: 119

2012-02-03 09:22  
Люди такий собі фільм можна подивитися якщо немає що дивитися.
Амереканський фільм

don pedro 
Попереджень: 1
Попереджень: 1 


З нами з: 29.06.11
Востаннє: 03.12.16
Повідомлень: 8722

2012-03-31 20:05  
Мені фільм дуже сподобався. Дивився у кінотеатрі, тож розширена версія дуже мене інтригує. Дякую!
novopav 
Новенький


З нами з: 14.12.11
Востаннє: 02.12.16
Повідомлень: 23

2013-02-09 19:24  
Дякую за фільм. Шкода, що переклад - то український, то англійський (з укр.субтитрами), ще й занадто часто змінюється на протязі всього фільму.
leroykendall 
Модератор HD


З нами з: 03.01.11
Востаннє: 20.11.16
Повідомлень: 749

2013-02-10 08:16  
novopav
Ось в цій версії не змінюється: http://toloka.to/t30744

Fergard 
Новенький


З нами з: 13.04.15
Востаннє: 01.12.16
Повідомлень: 2

2015-09-06 20:27  
Переклад був спочатку - приблизно хвилину, потім перекладу не знайшов.
Ви самі дивитесь те що викладаєте?

leroykendall 
Модератор HD


З нами з: 03.01.11
Востаннє: 20.11.16
Повідомлень: 749

2015-09-06 22:36  
Fergard
Це режисерська версія. Вона довша за театралку хвилин на 17.
На неперекладені місця присутні форсовані українські саби.

Додано через 2 хвилини 1 секунду:

Fergard
Ось театралка 720р: http://toloka.to/t30744

Purdun 
Свій


З нами з: 05.09.13
Востаннє: 29.08.16
Повідомлень: 82

2016-03-12 19:10  
Будь-ласка дайте доріжку окремо.
Ваш часовий пояс: GMT + 2 Години

Нова тема   Відповісти