Завантажити та скачати торренти українською


Фантастична четвірка / Fantastic Four (2005) 720p

Нові коментарі

Нова тема   Відповісти
Автор Повідомлення
Zeus62 
Відео Гуртом - команда HD
Відео Гуртом - команда HD


З нами з: 29.12.08
Востаннє: 16.11.16
Повідомлень: 330

2012-01-31 23:27  
Фантастична четвірка / Fantastic Four (2005) 720p

Фантастична четвірка / Fantastic Four (2005) 720p


Жанр: фантастика, екшн, пригодницький
Країна: США, Німеччина



Кіностудія / кінокомпанія: Twentieth Century Fox Film Corporation, Constantin Film Produktion та Marvel Enterprises
Режисер: Тім Сторі
Актори: Йон Груффуд, Джессіка Альба, Кріс Еванс, Майкл Чікліс, Джуліан МакМахон, Хаміш Лінклейтер, Керрі Вашингтон, Лорі Холден, Девід Паркер, Кевін МакНалті, Марія Меноунос, Майкл Копса, Ендрю Ейрлі, Паскаль Хаттон, Дж. Майкл Грей, Девід Річмонд-Пек, Пенелопа Коррін, Аоніка Лорен, Джейсон Шомбінг, Джейсон Діабло, Колін Лоуренс

Сюжет:
Історія розгортається навколо супергероїв, наділених в результаті космічної катастрофи нелюдськими здібностями. Голова сім'ї одержав здатність розятувати власне тіло. Його подруга стає невидимою, її молодший брат може контролювати вогонь. Після повернення на Землю четвірка починає активно заважати ворогам цивилізації, які завзято псують життя усього прогресивного людства. Разом вони повинні знищити плани головного лиходія, відомого як Містер Дум.


Тривалість: 01:45:29
Якість:
Відео:
кодек:
розмір кадру: 1280 х 544
бітрейт: 5291 кб/с

Аудіо:
мова: українська
переклад: професійний дубльований
кодек: 5.1
бітрейт: 448 кб/с
MediaInfo
Format : Matroska
File size : 4.23 GiB
Duration : 1h 45mn
Overall bit rate : 5 737 Kbps
Encoded date : UTC 2012-01-31 21:07:11
Writing application : mkvmerge v4.9.1 ('Ich will') зібрано Jul 23 2011 09:44:16
Writing library : libebml v1.2.1 + libmatroska v1.1.1

Video
ID : 1
Format : AVC
Format/Info : Advanced Video Codec
Format profile : [email protected]
Format settings, CABAC : Yes
Format settings, ReFrames : 16 frames
Codec ID : V_MPEG4/ISO/AVC
Duration : 1h 45mn
Bit rate : 5 291 Kbps
Width : 1 280 pixels
Height : 544 pixels
Display aspect ratio : 2.35:1
Frame rate mode : Variable
Frame rate : 23.976 fps
Color space : YUV
Chroma subsampling : 4:2:0
Bit depth : 8 bits
Scan type : Progressive
Bits/(Pixel*Frame) : 0.317
Stream size : 3.81 GiB (90%)
Writing library : core 112
Encoding settings : cabac=1 / ref=16 / deblock=1:-3:-3 / analyse=0x3:0x113 / me=umh / subme=10 / psy=1 / psy_rd=1,00:0,00 / mixed_ref=1 / me_range=64 / chroma_me=1 / trellis=2 / 8x8dct=1 / cqm=0 / deadzone=21,11 / fast_pskip=1 / chroma_qp_offset=-2 / threads=9 / sliced_threads=0 / nr=0 / decimate=1 / interlaced=0 / constrained_intra=0 / bframes=15 / b_pyramid=2 / b_adapt=2 / b_bias=0 / direct=1 / weightb=1 / open_gop=0 / weightp=2 / keyint=240 / keyint_min=23 / scenecut=40 / intra_refresh=0 / rc_lookahead=50 / rc=2pass / mbtree=1 / bitrate=5291 / ratetol=1,0 / qcomp=0,60 / qpmin=3 / qpmax=51 / qpstep=4 / cplxblur=20,0 / qblur=0,5 / ip_ratio=1,40 / aq=1:1,00
Language : English
Color primaries : BT.709-5, BT.1361, IEC 61966-2-4, SMPTE RP177
Transfer characteristics : BT.709-5, BT.1361
Matrix coefficients : BT.709-5, BT.1361, IEC 61966-2-4 709, SMPTE RP177

Audio
ID : 2
Format : AC-3
Format/Info : Audio Coding 3
Mode extension : CM (complete main)
Codec ID : A_AC3
Duration : 1h 45mn
Bit rate mode : Constant
Bit rate : 448 Kbps
Channel(s) : 6 channels
Channel positions : Front: L C R, Side: L R, LFE
Sampling rate : 48.0 KHz
Bit depth : 16 bits
Compression mode : Lossy
Stream size : 338 MiB (8%)
Language : Ukrainian
Скріншоти



Джерело: Власний ріп +
Подяка Lan за українську доріжку.
Особиста оцінка: 10 - без зайвих вагань рекомендую всім!


 Трекер:    Зареєстрований   

Завантажити / скачати фільм українською



відео для новачків



 Зареєстрований:   2012-01-31 23:27
 Розмір:   4.23 GB 
 Оцінка фільму:   10/10 (Голосів: 8)
   
Інші релізи
leroykendall 
Модератор HD


З нами з: 03.01.11
Востаннє: 20.11.16
Повідомлень: 749

2012-02-01 00:08  
Чи намає в доріжці того самого дефекту що і тут (хвилинна вставка польською): http://toloka.to/t13014
І Lan не сказав звідки звук?

Zeus62 
Відео Гуртом - команда HD
Відео Гуртом - команда HD


З нами з: 29.12.08
Востаннє: 16.11.16
Повідомлень: 330

2012-02-01 00:46  
Цитата:
Чи намає в доріжці того самого дефекту що і тут (хвилинна вставка польською): http://toloka.to/t13014
І Lan не сказав звідки звук?

Ні, тут повна озвучка. І він не вказував звідки звук.

kysel 
Частий відвідувач


З нами з: 28.06.12
Востаннє: 09.12.16
Повідомлень: 29

2014-05-31 14:51  
8 кб/с - це серйозно!!!!
Ваш часовий пояс: GMT + 2 Години

Нова тема   Відповісти