Завантажити та скачати торренти українською


Людина, яка змінила все / Moneyball (2011) 720p Ukr/Eng | Sub Eng

Нові коментарі

Нова тема   Відповісти
Автор Повідомлення
Віктор 
Відео Гуртом - субтитрування
Відео Гуртом - субтитрування


З нами з: 09.01.10
Востаннє: 03.12.16
Повідомлень: 8663

2012-01-31 21:05  
Людина, яка змінила все / Moneyball (2011) 720p Ukr/Eng | Sub Eng



«What are you really worth? »


Жанр: біографічний, драма, спорт
Країна: США



Кіностудія / кінокомпанія: Columbia Pictures, Scott Rudin Productions, Michael De Luca Productions
Режисер: Бенет Мілер (Bennett Miller)
Композитор: Міхаель Дана (Mychael Danna)
Актори: Бред Піт (Brad Pitt), Джона Гіл (Jonah Hill), Робін Райт (Robin Wright), Філіп Сеймур Гофмен (Philip Seymour Hoffman), Кріс Прат (Chris Pratt), Ґлен Моршовер (Glenn Morshower), Стефан Бішоп (Stephen Bishop) та інші.

Сюжет:
Давно вже не таємниця, що всім талантам потрібна фінансова допомога для того, щоб реалізуватися. І звичайно, ще важче, якщо мова йде про цілу команду талановитих бейсбольних гравців, адже відповідальність за здійснення їхніх мрій несе одна людина, лідер – на плечах якого доля перспективних молодих хлопців.
Номінації та цікавинки

Оскар, 2012 рік
Номінації (6):
Найкращий фільм
Найкраща чоловіча роль (Бред Піт)
Найкраща чоловіча роль другого плану (Джона Гіл)
Найкращий адаптований сценарій
Найкращий звук
Найкращий монтаж

Золотий ґлобус, 2012 рік
Номінації (4):
Найкращий фільм (драма)
Найкраща чоловіча роль (драма) (Бред Піт)
Найкраща чоловіча роль другого плану (Джона Гіл)
Найкращий сценарій

Британська академія, 2012 рік
Номінації (3):
Найкраща чоловіча роль (Бред Піт)
Найкраща чоловіча роль другого плану (Джона Гіл)
Найкращий адаптований сценарій




• Роль власника Оклендської бейсбольної команди зіграв Бобі (Роберт) Котик – президент і член правління комп’ютерної компанії Activision Blizzard.
• Бюджет – $50,000,000
MediaInfo

Код:
General
Unique ID                        : 176265218776178204699301504206228732080 (0x849B7240AF2085C18EFEE65F8E18B8B0)
Complete name                    : D:\HURTOM\Moneyball (2011) [Ukr, Eng] 720p [Hurtom].mkv
Format                           : Matroska
Format version                   : Version 2
File size                        : 8.55 GiB
Duration                         : 2h 13mn
Overall bit rate                 : 9 182 Kbps
Movie name                       : Moneyball (2011) [Ukr, Eng] 720p [Hurtom]
Encoded date                     : UTC 2012-02-01 18:05:24
Writing application              : mkvmerge v5.0.1 ('Es ist Sommer') built on Oct  9 2011 11:55:43
Writing library                  : libebml v1.2.2 + libmatroska v1.3.0

Video
ID                               : 1
Format                           : AVC
Format/Info                      : Advanced Video Codec
Format profile                   : [email protected]
Format settings, CABAC           : Yes
Format settings, ReFrames        : 9 frames
Codec ID                         : V_MPEG4/ISO/AVC
Duration                         : 2h 13mn
Bit rate                         : 7 900 Kbps
Width                            : 1 280 pixels
Height                           : 694 pixels
Display aspect ratio             : 16:9
Frame rate                       : 23.976 fps
Color space                      : YUV
Chroma subsampling               : 4:2:0
Bit depth                        : 8 bits
Scan type                        : Progressive
Bits/(Pixel*Frame)               : 0.371
Stream size                      : 7.18 GiB (84%)
Title                            : Moneyball (2011) [Ukr, Eng] 720p [Hurtom]
Writing library                  : core 120 r2120 0c7dab9
Encoding settings                : cabac=1 / ref=9 / deblock=1:-3:-3 / analyse=0x3:0x133 / me=tesa / subme=11 / psy=1 / psy_rd=1.05:0.05 / mixed_ref=1 / me_range=24 / chroma_me=1 / trellis=2 / 8x8dct=1 / cqm=0 / deadzone=21,11 / fast_pskip=0 / chroma_qp_offset=-3 / threads=12 / sliced_threads=0 / nr=0 / decimate=0 / interlaced=0 / bluray_compat=0 / constrained_intra=0 / bframes=7 / b_pyramid=2 / b_adapt=2 / b_bias=0 / direct=3 / weightb=1 / open_gop=0 / weightp=2 / keyint=250 / keyint_min=23 / scenecut=40 / intra_refresh=0 / rc=2pass / mbtree=0 / bitrate=7900 / ratetol=1.0 / qcomp=0.60 / qpmin=0 / qpmax=69 / qpstep=4 / cplxblur=20.0 / qblur=0.5 / ip_ratio=1.40 / pb_ratio=1.30 / aq=1:0.70
Language                         : English
Default                          : Yes
Forced                           : No

Audio #1
ID                               : 2
Format                           : AC-3
Format/Info                      : Audio Coding 3
Mode extension                   : CM (complete main)
Codec ID                         : A_AC3
Duration                         : 2h 13mn
Bit rate mode                    : Constant
Bit rate                         : 640 Kbps
Channel(s)                       : 6 channels
Channel positions                : Front: L C R, Side: L R, LFE
Sampling rate                    : 48.0 KHz
Bit depth                        : 16 bits
Compression mode                 : Lossy
Stream size                      : 610 MiB (7%)
Title                            : 5.1 @ 640 kbps - професійний дубльований | LeDoyen Studio | Ліцензія Blu Ray
Language                         : Ukrainian
Default                          : Yes
Forced                           : No

Audio #2
ID                               : 3
Format                           : AC-3
Format/Info                      : Audio Coding 3
Mode extension                   : CM (complete main)
Codec ID                         : A_AC3
Duration                         : 2h 13mn
Bit rate mode                    : Constant
Bit rate                         : 640 Kbps
Channel(s)                       : 6 channels
Channel positions                : Front: L C R, Side: L R, LFE
Sampling rate                    : 48.0 KHz
Bit depth                        : 16 bits
Compression mode                 : Lossy
Stream size                      : 610 MiB (7%)
Title                            : 5.1 @ 640 kbps
Language                         : English
Default                          : No
Forced                           : No

Text #1
ID                               : 4
Format                           : UTF-8
Codec ID                         : S_TEXT/UTF8
Codec ID/Info                    : UTF-8 Plain Text
Title                            : Форсовані
Language                         : Ukrainian
Default                          : Yes
Forced                           : No

Text #2
ID                               : 5
Format                           : UTF-8
Codec ID                         : S_TEXT/UTF8
Codec ID/Info                    : UTF-8 Plain Text
Title                            : SDH
Language                         : English
Default                          : No
Forced                           : No

Menu
00:00:00.000                     : en:00:00:00.000
00:08:25.130                     : en:00:08:25.130
00:13:33.479                     : en:00:13:33.479
00:23:35.706                     : en:00:23:35.706
00:29:36.233                     : en:00:29:36.233
00:39:50.680                     : en:00:39:50.680
00:49:55.868                     : en:00:49:55.868
00:59:02.080                     : en:00:59:02.080
01:08:09.919                     : en:01:08:09.919
01:17:32.523                     : en:01:17:32.523
01:26:20.300                     : en:01:26:20.300
01:34:40.091                     : en:01:34:40.091
01:38:59.559                     : en:01:38:59.559
01:45:35.579                     : en:01:45:35.579
01:51:21.174                     : en:01:51:21.174
01:58:41.281                     : en:01:58:41.281
Релізи та інформація про озвучення/дублювання

1080p Ukr/Eng | Sub Eng (10.61 GB) — професійний дубльований LeDoyen Studio ліцензія Blu-Ray
720p Ukr/Eng | Sub Eng (8.55 GB) — професійний дубльований LeDoyen Studio ліцензія Blu-Ray
Ukr/Eng (2.05 GB) — професійний дубльований LeDoyen Studio ліцензія Blu-Ray (звук перекодовано)

Фільм надано компанією Columbia Pictures дубльовано і зміксовано LeDoyen Studio на замовлення компанії B&H Film Distribution
Переклад: Олександра Шабельника
Режисер дубляжу: Ольга Фокіна
Звукорежисер: Дмитро Мялковський
Координатор дубляжу: Ольга Боєва
Ролі дублювали: Бред Піт/Білі Бін — Андрій Твердак, Джона Гіл/Пітер Бренд — Назар Задніпровський, Ґрейді — Володимир Нечепоренко, Філіп Сеймур Гофмен/Арт — Олександр Ігнатуша, Василь Мазур, Аліна Овчаренко, Дмитро Терещук, Джеймс Шенклін/Батько Біллі — Юрій Гребельник, Ґлен Моршовер/Рон Гопкінс — Михайло Кришталь, Віталій Дорошенко, Діана Беренс/Мама Білі — Ніна Касторф, Стефан Бішоп/Девід Джастіс — Дмитро Гаврилов та інші.
Тривалість: 02:13:14
Якість: 720р (DON / extreme94)
Відео:
кодек:
розмір кадру: 1280x694
бітрейт: 7900 кб/с

Аудіо # 1:
мова: українська
переклад: професійний дубльований LeDoyen Studio | Ліцензія Blu Ray
кодек: 5.1
бітрейт: 640 кб/с

Аудіо # 2:
мова: анґлійська
переклад: ориґінал
кодек: 5.1
бітрейт: 640 кб/с

Субтитри # 1:
мова: українська (на жаль, лише форсовані (тобто тільки на написи) з Blu-Ray)
тип: програмні (м’які)
формат: *.srt

Субтитри # 2:
мова: анґлійська
тип: програмні (м’які)
формат: *.srt (SDH)

Скріншоти:





Окрема подяка Mirqn


Джерело:
Особиста оцінка: 9


 Трекер:    Зареєстрований   

Завантажити / скачати фільм українською



відео для новачків



 Зареєстрований:   2012-02-01 20:28
 Розмір:   8.55 GB 
 Оцінка фільму:   8.2/10 (Голосів: 20)
   
bot 
робот


З нами з: 30.09.07
Востаннє: 26.05.05
Повідомлень: 15983

2012-02-01 20:28  
Тему перенесено з Анонси релізів від Відео Гуртом до форуму Фільми в HD


w2958l

praysu 
Забанено
Забанено


З нами з: 22.05.08
Востаннє: 13.11.13
Повідомлень: 119

2012-02-03 09:25  
Цитата:
http://fotky.com.ua/view/full/114760_caesl


Навіщо цей скрін?))))

Mr.Profi 
Новенький


З нами з: 19.07.16
Востаннє: 19.11.16
Повідомлень: 4

2016-07-19 07:39  
Крутезний мотивуючий фільм про перебудову команди, лідерство, мотивацію і роботу на результат! Ще на цю тему раджу подивитись Політ Фенікса http://toloka.to/t23792
Ваш часовий пояс: GMT + 2 Години

Нова тема   Відповісти