Завантажити та скачати торренти українською


Old Silver Key - Tales Of Wanderings (2011) [FLAC] | Post Rock / Shoegaze

Нові коментарі

Нова тема   Відповісти
Останній раз роздавалося Myfordownloads (2016-04-10)
Автор Повідомлення
Lev 
VIP


З нами з: 14.10.09
Востаннє: 09.12.16
Повідомлень: 1819

2012-01-30 06:45  
Old Silver Key - Tales Of Wanderings (2011) [FLAC] | Post Rock / Shoegaze

Old Silver Key - Tales Of Wanderings (2011) [FLAC] | Post Rock / Shoegaze


Стиль: Post Rock / Shoegaze
Країна, місто: Україна-Франція
Видавець: Season of Mist
Виконавці:

Роман Саєнко - гітари, лірика (Blood of Kingu, Dark Ages, Drudkh, ex-Hate Forest)
Neige - вокал (Alcest, Lantlos, ex-Amesoeurs, ex-Peste Noire etc.)
Thurios - гітари (Astrofaes, Blood of Kingu, Drudkh, Kladovest, ex-Hate Forest)
Krechet - бас-гітара (Blood of Kingu, Drudkh, ex-Astrofaes)
Влад - ударні, клавішні, піаніно (Drudkh)

Пісні:
    01. What Once Was and Will Never Happen Again (02:05)
    02. November Nights Insomnia (05:45)
    03. Cold Spring (06:44)
    04. Nineteen Winters Far Away From Home (03:53)
    05. Star Catcher (05:10)
    06. Burnt Letters (05:21)
    07. About Which an Old House Dreams (08:25)

Тривалість: 00:37:12
Мова: англійська (2-3, 5-7), інстр.треки (1, 4)
Аудіо-кодек: FLAC
Бітрейт: lossless
Джерело: what.cd
Додаткова інформація:
Спільний проект музикантів Drudkh та француза Neige. Дебютний альбом вийшов у Європі 16 вересня 2011 року. Роздача містить також тексти альбому.
log EAC
Exact Audio Copy V1.0 beta 3 from 29. August 2011

EAC extraction logfile from 6. October 2011, 17:33

Old Silver Key / Tales of Wanderings

Used drive : HL-DT-STDVDRAM GU10N Adapter: 0 ID: 1

Read mode : Secure
Utilize accurate stream : Yes
Defeat audio cache : Yes
Make use of C2 pointers : No

Read offset correction : 667
Overread into Lead-In and Lead-Out : No
Fill up missing offset samples with silence : Yes
Delete leading and trailing silent blocks : No
Null samples used in CRC calculations : Yes
Used interface : Native Win32 interface for Win NT & 2000
Gap handling : Appended to previous track

Used output format : User Defined Encoder
Selected bitrate : 1024 kBit/s
Quality : High
Add ID3 tag : No
Command line compressor : C:\Program Files\Exact Audio Copy\Flac\flac.exe
Additional command line options : -8 -V -T "ARTIST=%artist%" -T "TITLE=%title%" -T "ALBUM=%albumtitle%" -T "DATE=%year%" -T "TRACKNUMBER=%tracknr%" -T "GENRE=%genre%" -T "PERFORMER=%albuminterpret%" -T "COMPOSER=%composer%" %haslyrics%--tag-from-file=LYRICS="%lyricsfile%"%haslyrics% -T "ALBUMARTIST=%albumartist%" -T "ALBUM ARTIST=%albumartist%" -T "DISCNUMBER=%cdnumber%" -T "TOTALDISCS=%totalcds%" -T "TOTALTRACKS=%numtracks%" -T "COMMENT=%comment%" %source% -o %dest%

TOC of the extracted CD

Track | Start | Length | Start sector | End sector
---------------------------------------------------------
1 | 0:00.00 | 2:05.35 | 0 | 9409
2 | 2:05.35 | 5:36.58 | 9410 | 34667
3 | 7:42.18 | 6:44.68 | 34668 | 65035
4 | 14:27.11 | 3:47.34 | 65036 | 82094
5 | 18:14.45 | 5:10.40 | 82095 | 105384
6 | 23:25.10 | 5:21.17 | 105385 | 129476
7 | 28:46.27 | 8:25.70 | 129477 | 167421

Track 1

Filename E:\Old Silver Key - Tales of Wanderings - 2011 - FLAC\01 - What Once Was And Will Never Happen Again.wav

Pre-gap length 0:00:02.00

Peak level 97.5 %
Extraction speed 0.8 X
Track quality 99.9 %
Test CRC 4BAE491A
Copy CRC 4BAE491A
Track not present in AccurateRip database
Copy OK

Track 2

Filename E:\Old Silver Key - Tales of Wanderings - 2011 - FLAC\02 - November Nights Insomnia.wav

Peak level 97.5 %
Extraction speed 1.3 X
Track quality 100.0 %
Test CRC 51BAA3A2
Copy CRC 51BAA3A2
Track not present in AccurateRip database
Copy OK

Track 3

Filename E:\Old Silver Key - Tales of Wanderings - 2011 - FLAC\03 - Cold Spring.wav

Peak level 97.5 %
Extraction speed 1.4 X
Track quality 100.0 %
Test CRC F549F69D
Copy CRC F549F69D
Track not present in AccurateRip database
Copy OK

Track 4

Filename E:\Old Silver Key - Tales of Wanderings - 2011 - FLAC\04 - Nineteen Winters Far Away From Home.wav

Peak level 97.5 %
Extraction speed 1.6 X
Track quality 100.0 %
Test CRC 4A9E2509
Copy CRC 4A9E2509
Track not present in AccurateRip database
Copy OK

Track 5

Filename E:\Old Silver Key - Tales of Wanderings - 2011 - FLAC\05 - Star Catcher.wav

Peak level 97.5 %
Extraction speed 1.6 X
Track quality 100.0 %
Test CRC 71DF8E77
Copy CRC 71DF8E77
Track not present in AccurateRip database
Copy OK

Track 6

Filename E:\Old Silver Key - Tales of Wanderings - 2011 - FLAC\06 - Burnt Letters.wav

Peak level 97.5 %
Extraction speed 1.7 X
Track quality 100.0 %
Test CRC EF8B187B
Copy CRC EF8B187B
Track not present in AccurateRip database
Copy OK

Track 7

Filename E:\Old Silver Key - Tales of Wanderings - 2011 - FLAC\07 - About Which An Old House Dreams.wav

Peak level 97.5 %
Extraction speed 1.9 X
Track quality 100.0 %
Test CRC 94AD9165
Copy CRC 94AD9165
Track not present in AccurateRip database
Copy OK

None of the tracks are present in the AccurateRip database

No errors occurred

End of status report

---- CUETools DB Plugin V2.1.3

[CTDB TOCID: 2az6Xq7AZxRUxvvbVPFv.GE5f3k-] disk not present in database, Submit result: 2az6Xq7AZxRUxvvbVPFv.GE5f3k- has been uploaded

==== Log checksum 86B60E1FBA23F3F1775DC749722980A77DB9962527BA8E363068DE3FB219D707 ====
Якщо Ви справді бажаєте підтримати українське - після прослуховування, якщо музика вам сподобалась, придбайте ліцензійний диск. Підтримаймо вітчизняних виконавців!


Срібний реліз (на рейтинг впливає 50% завантаженого)
 Трекер:    Зареєстрований   

Завантажити / скачати українську музику



відео для новачків



 Зареєстрований:   2012-01-30 06:45
 Розмір:   250 MB 
 Оцінка музики:   10/10 (Голосів: 4)
   
Ваш часовий пояс: GMT + 2 Години

Нова тема   Відповісти