Завантажити та скачати торренти українською


Частини тіла / Private Parts (1997) 720р Ukr/Eng |Sub Eng

Нові коментарі

Нова тема   Відповісти
Автор Повідомлення
DiGen 
Модератор HD та координатор Команди HD
Модератор HD та координатор Команди HD


З нами з: 12.11.09
Востаннє: 24.06.13
Повідомлень: 1452

2012-01-28 13:00  
Частини тіла / Private Parts (1997) 720р Ukr/Eng |Sub Eng


Жанр: біографічний, документальний, драма, комедія
Країна: США



Кіностудія / кінокомпанія: Paramount Pictures, Rysher Entertainment, Northern Lights Entertainment
Режисер: Бетті Томас
Актори: Говард Стерн, Мері МакКормек, Пол Джаматті, Келлі Бішоп, Еллісон Дженні, Робін Куіверс, Фред Норріс, Джекі Мартлінг, Керол Олт, Річард Портноу

Сюжет:
За автобіографічною книгою Говарда Стерна, популярного радіо дискжокея, що знявся в фільмі в ролі самого себе. Він добився успіху, завдяки своїй шокуючій щирості і внаслідок цього неймовірній скандальності, оскільки люди зазвичай не розповідають про себе, а підбирають для гостроти вигаданий персонаж.
«Чому ви слухаєте його?», — запитують людей на вулиці. — «А цікаво, що він скаже далі». Розповідь про цього непередбачуваного коміка — імпровізатора побудована режисером від першої особи і починається з дитинства, коли майбутній зірці ефіру були років вісім. За жанром фільм, звичайно, — комедія, але по суті — це драма, в якій, як і в житті, є багато сумного і смішного..


Тривалість: 01:49:33
Якість:
Відео:
кодек:
розмір кадру: 1280 х 720
бітрейт: 5232 кб/с

Аудіо # 1:
мова: українська
переклад: двоголосий закадровий
кодек: 5.1
бітрейт: 448 кб/с
Джерело озвучення:

Аудіо # 2:
мова: англійська
переклад: оригінал
кодек: 2.0
бітрейт: 384 кб/с

Субтитри:
мова: англійська
тип: програмні (м'які)
формат: *.srt
MediaInfo

General
Unique ID : 182841969445278035603412116564760828678 (0x898E151876C30E23AC2A65E01F0B9B06)
Format : Matroska
File size : 4.64 GiB
Duration : 1h 49mn
Overall bit rate : 6 059 Kbps
Encoded date : UTC 2012-01-29 11:12:25
Writing application : mkvmerge v4.5.0 ('Speed of Light') зібрано Feb 6 2011 12:51:39
Writing library : libebml v1.2.0 + libmatroska v1.1.0
Video #1
ID : 1
Format : AVC
Format/Info : Advanced Video Codec
Format profile : [email protected]
Format settings, CABAC : Yes
Format settings, ReFrames : 4 frames
Codec ID : V_MPEG4/ISO/AVC
Duration : 1h 49mn
Bit rate : 5 232 Kbps
Width : 1 280 pixels
Height : 720 pixels
Display aspect ratio : 16:9
Frame rate : 23.976 fps
Color space : YUV
Chroma subsampling : 4:2:0
Bit depth : 8 bits
Scan type : Progressive
Bits/(Pixel*Frame) : 0.237
Stream size : 3.91 GiB (84%)
Title : Private Parts (1997) .Tr_01.Video.[HURTOM] by DiGen
Writing library : core 92 r1510 33d382a
Encoding settings : cabac=1 / ref=5 / deblock=1:-2:-2 / analyse=0x3:0x133 / me=umh / subme=9 / psy=1 / psy_rd=1.00:0.00 / mixed_ref=1 / me_range=24 / chroma_me=1 / trellis=2 / 8x8dct=1 / cqm=0 / deadzone=21,11 / fast_pskip=0 / chroma_qp_offset=-2 / threads=6 / sliced_threads=0 / nr=0 / decimate=0 / interlaced=0 / constrained_intra=0 / bframes=6 / b_pyramid=1 / b_adapt=2 / b_bias=0 / direct=3 / wpredb=1 / wpredp=2 / keyint=250 / keyint_min=25 / scenecut=40 / intra_refresh=0 / rc=2pass / mbtree=0 / bitrate=5232 / ratetol=2.0 / qcomp=0.60 / qpmin=10 / qpmax=51 / qpstep=4 / cplxblur=20.0 / qblur=0.5 / ip_ratio=1.40 / pb_ratio=1.30 / aq=1:1.00
Language : English
Audio #2
ID : 2
Format : AC-3
Format/Info : Audio Coding 3
Mode extension : CM (complete main)
Codec ID : A_AC3
Duration : 1h 49mn
Bit rate mode : Constant
Bit rate : 448 Kbps
Channel(s) : 6 channels
Channel positions : Front: L C R, Side: L R, LFE
Sampling rate : 48.0 KHz
Bit depth : 16 bits
Compression mode : Lossy
Delay relative to video : 1s 0ms
Stream size : 351 MiB (7%)
Title : Private Parts (1997) .Tr_02.A-UKR.[AC3_5.1-448].[HURTOM] by imonko
Language : Ukrainian
Audio #3
ID : 3
Format : AC-3
Format/Info : Audio Coding 3
Mode extension : CM (complete main)
Codec ID : A_AC3
Duration : 1h 49mn
Bit rate mode : Constant
Bit rate : 384 Kbps
Channel(s) : 2 channels
Channel positions : Front: L R
Sampling rate : 48.0 KHz
Bit depth : 16 bits
Compression mode : Lossy
Stream size : 301 MiB (6%)
Title : Private Parts (1997) .Tr_03.A-Eng.[AC3_2.0-384].[HURTOM] by DiGen
Language : English
Text #4
ID : 4
Format : UTF-8
Codec ID : S_TEXT/UTF8
Codec ID/Info : UTF-8 Plain Text
Title : Private Parts (1997) .Tr_04.Sub-Eng.srt.[HURTOM] by DiGen
Language : English
Скріншоти







Подяки:
imonko за готову Українську доріжку
MAKAPOHHIK за запис звуку

!!! УВАГА. У зв"язку з тим, що проводиться процес перекодування не маю можливості перевірити повністю весь фільм - висить ПК(вибрав центральну частину на 15 сек - нормально), тому якщо щось не так - пишіть в ПП


Джерело: &
Особиста оцінка: 10 - без зайвих вагань рекомендую всім!
Мої наступні релізи:
HD 1080p/720p:

01. Ворог держави/Enemy of the State 720р - буду починати (чекаю доріжку від 1+1)
02. Льодовиковий період 2/Ice Age 2 720p (якщо буде укр. доріжка)
03.
04. Люди в чорному 2/Men in Black 2 720/1080p
05.
06. Autumn in New York 720р
08. Співучасник / Collateral (2004) - як тільки буде укр. звук
09. Коефіцієнт інтелекту/IQ (1994) - 720p
10. Робокоп 1,2,3 (1987,1990,1993) 720p
11. Смертельні перегони 1,2/Death Race 1,2(2008/2010) 720p
12. Святий/The Saint 1080p - готовий, лише треба звук підігнати та оформити
13. Boondock Saints.1999.BD.Rip.720p - якщо буде укр.доріжка
14. Boondock Saints II.All Saints Day.BD.Rip.720p - якщо буде укр.доріжка
15. Rain.Man.1988.720p
16.
17.
18. Blind Fury (1989) 1080і - готовий, лише треба звук підігнати та оформити
19.
20.
21. Миротворець / The Peacemaker (1997) 720р
22. Flashbacks of a Fool (2008) 720p - готовий, лише треба звук підігнати та оформити
23. Смертельні перегони 2000року (1975) 1080р - готове відео, лише треба саби
24. Bembi (1942) 720р
25.
26. Requiem for a Dream (2000) 720р
27. Shichinin no samura (1954)

:

01. Формула 51/Formula 51
02. Коефіцієнт інтелекту/IQ (1994) - /720p
Не забуваємо клацати "ДЯКУЮ"


Срібний реліз (на рейтинг впливає 50% завантаженого)
 Трекер:    Зареєстрований   

Завантажити / скачати фільм українською



відео для новачків



 Зареєстрований:   2012-01-29 14:34
 Розмір:   4.64 GB 
 Оцінка фільму:   9.5/10 (Голосів: 2)
   
deviator 
Частий відвідувач


З нами з: 16.09.09
Востаннє: 14.10.16
Повідомлень: 31

2012-01-28 14:51  
це один з моїх найулюбленіших фільмів...

цікаво було б почути якість перекладу....

Ваш часовий пояс: GMT + 2 Години

Нова тема   Відповісти