Завантажити та скачати торренти українською


Влада вогню / Reign of Fire (2002) 720p Ukr/Eng | Sub Eng

Нові коментарі

Нова тема   Відповісти
Автор Повідомлення
Віктор 
Відео Гуртом - субтитрування
Відео Гуртом - субтитрування


З нами з: 09.01.10
Востаннє: 08.12.16
Повідомлень: 8663

2012-01-28 12:17  
Влада вогню / Reign of Fire (2002) 720p Ukr/Eng | Sub Eng


Влада вогню / Reign of Fire (2002) 720p Ukr/Eng | Sub Eng

«Fight Fire With Fire»


Жанр: фантастика, бойовик, фентезі, трилер
Країна: Велика Британія, Ірландія, США



Кіностудія / кінокомпанія: Spyglass Entertainment, Touchstone Pictures, Tripod Entertainment
Режисер: Роб Бовмен (Rob Bowman)
Композитори: Ед Ширмур (Ed Shearmur) і Бред Ваґнер (Brad Wagner)
Актори: Крістіан Бейл (Christian Bale), Меттью МакКонагі (Matthew McConaughey), Ізабелла Скорупко (Izabella Scorupco), Джерард Батлер (Gerard Butler), Девід Кеннеді (David Kennedy), Олександр Сіддінг (Alexander Siddig), Нед Деннегі (Ned Dennehy), Рорі Кінен (Rory Keenan) та інші.

Сюжет:
Лондон, наші дні... Мати 12-го Квіна випадково збудила від багатовікового сну гігантське чудовисько... Двадцять років потому. Велика частина планети знаходиться під владою монстра і його нащадків. Квін відчуває провину за появу чудовиська і готовий врятувати людство. До нього приєднується американський стрілець Ван Зан, який знає, як знищити цього монстра…
Номінації, цікаві факти

Сатурн, 2003 рік
Номінації (1):

Найкращий фентезі-фільм

Цікаві факти про фільм

• Метод, яким дракони вивергають вогонь, запозичений у двох тварин: кобри, що плюється отрутою, і жука-бомбардира.
• Показ фільму, запланований на 7 липня 2005 року на британському телеканалі ABC, був скасований через теракти, що відбулися цього дня, в Лондоні. Керівництво каналу вирішило, що видовище зруйнованого драконами Лондона нагадуватиме глядачам про трагедію, що відбулася, і замінило "Владу вогню" в прокатній сітці на сімейну комедію "Великий товстий брехун" (2002).
• Знімальний період: 19 лютого - липень 2001 року.
• Значна частина зйомок фільму пройшла в горах Віклоу, в Ірландії, недалеко від Дубліна. Оскільки ця територія входить в національний парк і користується великою популярністю у туристів, творцям фільму дозволили роботу за умови, що після закінчення зйомок все буде прибрано і наведено в первинний стан без щонайменшого збитку природному ландшафту.
• Бюджет: $95,000,000
MediaInfo

Код:
General
Unique ID                        : 235425959200317207258546888530931073957 (0xB11D63F498BA7D298B8CEDEBBD09C3A5)
Complete name                    : D:\HURTOM\Reign of Fire (2002) [Ukr, Eng] 720p [Hurtom].mkv
Format                           : Matroska
Format version                   : Version 2
File size                        : 5.13 GiB
Duration                         : 1h 41mn
Overall bit rate                 : 7 204 Kbps
Movie name                       : Reign of Fire (2002) [Ukr, Eng] 720p [Hurtom]
Encoded date                     : UTC 2012-01-28 22:35:51
Writing application              : mkvmerge v5.0.1 ('Es ist Sommer') built on Oct  9 2011 11:55:43
Writing library                  : libebml v1.2.2 + libmatroska v1.3.0

Video
ID                               : 1
Format                           : AVC
Format/Info                      : Advanced Video Codec
Format profile                   : [email protected]
Format settings, CABAC           : Yes
Format settings, ReFrames        : 8 frames
Codec ID                         : V_MPEG4/ISO/AVC
Duration                         : 1h 41mn
Bit rate                         : 5 103 Kbps
Width                            : 1 280 pixels
Height                           : 544 pixels
Display aspect ratio             : 2.35:1
Frame rate                       : 23.976 fps
Color space                      : YUV
Chroma subsampling               : 4:2:0
Bit depth                        : 8 bits
Scan type                        : Progressive
Bits/(Pixel*Frame)               : 0.306
Stream size                      : 3.63 GiB (71%)
Title                            : Reign of Fire (2002) [Ukr, Eng] 720p [Hurtom]
Writing library                  : core 114 r1913 5fd3dce
Encoding settings                : cabac=1 / ref=8 / deblock=1:-3:-3 / analyse=0x3:0x113 / me=umh / subme=10 / psy=1 / psy_rd=0.95:0.05 / mixed_ref=1 / me_range=48 / chroma_me=1 / trellis=2 / 8x8dct=1 / cqm=0 / deadzone=21,11 / fast_pskip=0 / chroma_qp_offset=-3 / threads=6 / sliced_threads=0 / nr=0 / decimate=1 / interlaced=0 / constrained_intra=0 / bframes=10 / b_pyramid=2 / b_adapt=2 / b_bias=0 / direct=2 / weightb=1 / open_gop=0 / weightp=2 / keyint=250 / keyint_min=23 / scenecut=40 / intra_refresh=0 / rc=crf / mbtree=0 / crf=18.0 / qcomp=0.60 / qpmin=0 / qpmax=69 / qpstep=4 / ip_ratio=1.40 / pb_ratio=1.30 / aq=1:0.90
Language                         : English
Default                          : Yes
Forced                           : No

Audio #1
ID                               : 2
Format                           : AC-3
Format/Info                      : Audio Coding 3
Mode extension                   : CM (complete main)
Codec ID                         : A_AC3
Duration                         : 1h 41mn
Bit rate mode                    : Constant
Bit rate                         : 448 Kbps
Channel(s)                       : 6 channels
Channel positions                : Front: L C R, Side: L R, LFE
Sampling rate                    : 48.0 KHz
Bit depth                        : 16 bits
Compression mode                 : Lossy
Stream size                      : 327 MiB (6%)
Title                            : 5.1 @ 448 kbps - двоголосий закадровий
Language                         : Ukrainian
Default                          : Yes
Forced                           : No

Audio #2
ID                               : 3
Format                           :
Format/Info                      : Digital Theater Systems
Codec ID                         : A_DTS
Duration                         : 1h 41mn
Bit rate mode                    : Constant
Bit rate                         : 1 510 Kbps
Channel(s)                       : 6 channels
Channel positions                : Front: L C R, Side: L R, LFE
Sampling rate                    : 48.0 KHz
Bit depth                        : 24 bits
Compression mode                 : Lossy
Delay relative to video          : 11ms
Stream size                      : 1.08 GiB (21%)
Title                            : 5.1 @ 1536 kbps
Language                         : English
Default                          : No
Forced                           : No

Text
ID                               : 4
Format                           : UTF-8
Codec ID                         : S_TEXT/UTF8
Codec ID/Info                    : UTF-8 Plain Text
Language                         : English
Default                          : No
Forced                           : No
Всі наявні релізи

Завантажити:
720p Ukr/Eng | Sub Ukr/Eng (5.13 GB) - двоголосий закадровий запис звуку з 2+2
Ukr/Eng | Sub Eng (2.18 GB) - двоголосий закадровий запис звуку з 2+2

Ролі озвучили: Микола Козій
Тривалість: 01:41:58
Якість: 720p (miscalin11)
Відео:
кодек:
розмір кадру: 1280x544
бітрейт: 5103 кб/с

Аудіо # 1:
мова: українська
переклад: двоголосий закадровий запис звуку з 2+2 | усі чоловічі ролі озвучив: Микола Козій
кодек: 5.1
бітрейт: 448 кб/с

Аудіо # 2:
мова: англійська
переклад: оригінал
кодек: 5.1
бітрейт: 1536 кб/с

Субтитри:
мова: англійська
тип: програмні (м'які)
формат: *.srt

Скріншоти :




За синхронізацію української доріжки і люб'язно наданий код оформлення подяка Romario_O,
за запис звуку з ТБ подяка karvai0


Джерело: &
Особиста оцінка: 8


Срібний реліз (на рейтинг впливає 50% завантаженого)
 Трекер:    Зареєстрований   

Завантажити / скачати фільм українською



відео для новачків



 Зареєстрований:   2012-01-29 01:06
 Розмір:   5.13 GB 
 Оцінка фільму:   7.8/10 (Голосів: 10)
   
Інші релізи
   Влада вогню / Reign of Fire (2002) Ukr/Eng | Sub Eng Romario_O  5 / 0   2.18 GB   2012-01-29 00:08 
myroslav 
VIP


З нами з: 25.05.08
Востаннє: 07.12.16
Повідомлень: 362

2012-01-29 00:49  
Чудовий фільм.
bot 
робот


З нами з: 30.09.07
Востаннє: 26.05.05
Повідомлень: 16031

2012-01-29 01:05  
Тему перенесено з Анонси релізів від Відео Гуртом до форуму Фільми в HD


w2958l

Ваш часовий пояс: GMT + 2 Години

Нова тема   Відповісти