Завантажити та скачати торренти українською


Детектив Буліт / Bullitt (1968) 720p Ukr/Eng | Sub Eng

Нові коментарі

Нова тема   Відповісти
Автор Повідомлення
Віктор 
Відео Гуртом - субтитрування
Відео Гуртом - субтитрування


З нами з: 09.01.10
Востаннє: 05.12.16
Повідомлень: 8663

2012-01-28 12:01  
Детектив Буліт / Bullitt (1968) 720p Ukr/Eng | Sub Eng

Детектив Буліт / Bullitt (1968) 720p Ukr/Eng | Sub Eng

«Detective Lt. Frank Bullitt - some other kind of cop. Pity the guy he works for.»


Жанр: бойовик, драма, кримінал
Країна: США



Кіностудія / кінокомпанія: Warner Brothers/Seven Arts, Solar Productions
Режисер: Пітер Ятс (Peter Yates)
Композитор: Лало Шифрін (Lalo Schifrin)
Актори: Стів МакКвін (Steve McQueen), Жаклін Бісет (Jacqueline Bisset), Роберт Вон (Robert Vaughn), Нормал Фел (Norman Fell), Роберт Дюваль (Robert Duvall) та інші.

Сюжет:
Нове завдання детектива Френка Буліта на перший погляд виглядає цілком нормально: охороняти відомого свідка під час слухання гучної справи. Проте до настання наступного дня свідка вбивають. Холоднокровний і рішучий Буліт не заспокоїться, поки вбивці і той, хто за ними стоїть, не будуть покарані.
Перемоги, номінації, цікаві факти

Включений до Національного регістру фільмів у 2007 році

Британська академія, 1970 рік
Номінації (5):
Найкраща чоловіча роль другого плану (Роберт Вон)
Найкращий режисер (Пітер Ятс)
Найкраща робота оператора
Найкращий саундтрек
Найкращий монтаж

Оскар, 1969 рік
Переможець (1):
Найкращий монтаж

Номінації (1):
Найкращий звук

Цікаві факти про фільм

• Широко поширена думка, що МакКвін виконував усі автомобільні трюки сам, проте це не зовсім вірно. Постановник трюків Кері Лофтін мав у своєму розпорядженні відомого авто- і мотогонщика Бада Екінса, який і виконував найбільш небезпечні трюки на "Мустангу". У салоні "Мустанга" іноді можна розгледіти в дзеркалі водія. Коли воно підняте, видно МакКвіна, коли опущено і нікого не видно - за кермом Екінс. Чорним "Dodge Charger" керує Біл Гікмен, який виконує роль одного з вбивць, а також брав участь в постановці сцени.
• Сцену тривалістю 9 хвилин 42 секунди знімали три тижні.
• Кінокомпанія отримала відмову на прохання провести зйомки на мосту "Золоті Ворота". Під час сцени гонитви, автомобілі чотири рази проносяться повз одного і того ж зеленого "жука" "Volkswagen". Це результат того, що для зйомок був відведений дуже невеликий район міста, і на машинах довелося встановити по декілька камер, що знімають під різними кутами. В процесі монтажу ці епізоди були побудовані так, щоб створювалося враження, нібито герої об'їздили велику за розміром територію.
• 2007 року фільм був включений Бібліотекою Конгресу в Національний Реєстр США, як важливий в культурному, історичному і естетичному відношенні.
• У зйомках знаменитої сцени гонитви режисер закликав водіїв до швидкості приблизно 120-130 км/год, але у результаті машини (включаючи ті, що були з камерами) розвинули швидкість понад 175 км/год на рівних ділянках вулиць.
• Бюджет: $5,500,000
MediaInfo

Код:
General
Unique ID                        : 204943343347917523795179079424877801183 (0x9A2EA6F5A3ABE30C90E75C2253D82EDF)
Complete name                    : D:\HURTOM\Bullitt (1968) [Ukr, Eng] 720p [Hurtom].mkv
Format                           : Matroska
Format version                   : Version 2
File size                        : 7.85 GiB
Duration                         : 1h 53mn
Overall bit rate                 : 9 877 Kbps
Movie name                       : Bullitt (1968) [Ukr, Eng] 720p [Hurtom]
Encoded date                     : UTC 2012-01-28 09:21:29
Writing application              : mkvmerge v5.0.1 ('Es ist Sommer') built on Oct  9 2011 11:55:43
Writing library                  : libebml v1.2.2 + libmatroska v1.3.0

Video
ID                               : 1
Format                           : AVC
Format/Info                      : Advanced Video Codec
Format profile                   : [email protected]
Format settings, CABAC           : Yes
Format settings, ReFrames        : 9 frames
Codec ID                         : V_MPEG4/ISO/AVC
Duration                         : 1h 53mn
Bit rate                         : 9 104 Kbps
Width                            : 1 272 pixels
Height                           : 720 pixels
Display aspect ratio             : 16:9
Frame rate                       : 23.976 fps
Color space                      : YUV
Chroma subsampling               : 4:2:0
Bit depth                        : 8 bits
Scan type                        : Progressive
Bits/(Pixel*Frame)               : 0.415
Stream size                      : 7.23 GiB (92%)
Title                            : Bullitt (1968) [Ukr, Eng] 720p [Hurtom]
Writing library                  : core 119 r2106 07efeb4
Encoding settings                : cabac=1 / ref=9 / deblock=1:-3:-3 / analyse=0x3:0x113 / me=umh / subme=11 / psy=1 / psy_rd=1.00:0.00 / mixed_ref=1 / me_range=64 / chroma_me=1 / trellis=2 / 8x8dct=1 / cqm=0 / deadzone=21,11 / fast_pskip=1 / chroma_qp_offset=-2 / threads=9 / sliced_threads=0 / nr=0 / decimate=1 / interlaced=0 / bluray_compat=0 / constrained_intra=0 / bframes=8 / b_pyramid=2 / b_adapt=2 / b_bias=0 / direct=1 / weightb=1 / open_gop=0 / weightp=2 / keyint=240 / keyint_min=25 / scenecut=40 / intra_refresh=0 / rc=crf / mbtree=0 / crf=17.5 / qcomp=0.60 / qpmin=0 / qpmax=69 / qpstep=4 / ip_ratio=1.40 / pb_ratio=1.30 / aq=1:1.00
Language                         : English
Default                          : Yes
Forced                           : No
Color primaries                  : BT.709-5, BT.1361, IEC 61966-2-4, SMPTE RP177
Transfer characteristics         : BT.709-5, BT.1361
Matrix coefficients              : BT.709-5, BT.1361, IEC 61966-2-4 709, SMPTE RP177

Audio #1
ID                               : 2
Format                           : AC-3
Format/Info                      : Audio Coding 3
Mode extension                   : CM (complete main)
Codec ID                         : A_AC3
Duration                         : 1h 53mn
Bit rate mode                    : Constant
Bit rate                         : 192 Kbps
Channel(s)                       : 2 channels
Channel positions                : Front: L R
Sampling rate                    : 48.0 KHz
Bit depth                        : 16 bits
Compression mode                 : Lossy
Stream size                      : 156 MiB (2%)
Title                            : 2.0 @ 192 kbps - двоголосий закадровий; Студія 1+1; Світлана Круть і Юрій Коваленко
Language                         : Ukrainian
Default                          : Yes
Forced                           : No

Audio #2
ID                               : 3
Format                           : AC-3
Format/Info                      : Audio Coding 3
Format profile                   : Dolby Digital
Mode extension                   : CM (complete main)
Codec ID                         : A_AC3
Duration                         : 1h 53mn
Bit rate mode                    : Constant
Bit rate                         : 192 Kbps
Channel(s)                       : 2 channels
Channel positions                : Front: L R
Sampling rate                    : 48.0 KHz
Bit depth                        : 16 bits
Compression mode                 : Lossy
Stream size                      : 156 MiB (2%)
Title                            : 2.0 @ 192 kbps
Language                         : English
Default                          : No
Forced                           : No

Audio #3
ID                               : 4
Format                           : AC-3
Format/Info                      : Audio Coding 3
Format profile                   : Dolby Digital
Mode extension                   : CM (complete main)
Codec ID                         : A_AC3
Duration                         : 1h 53mn
Bit rate mode                    : Constant
Bit rate                         : 192 Kbps
Channel(s)                       : 2 channels
Channel positions                : Front: L R
Sampling rate                    : 48.0 KHz
Bit depth                        : 16 bits
Compression mode                 : Lossy
Stream size                      : 156 MiB (2%)
Title                            : 2.0 @ 192 kbps - Commentary
Language                         : English
Default                          : No
Forced                           : No

Text
ID                               : 5
Format                           : UTF-8
Codec ID                         : S_TEXT/UTF8
Codec ID/Info                    : UTF-8 Plain Text
Language                         : English
Default                          : No
Forced                           : No
Наявні релізи

720p Ukr/Eng | Sub Eng (7.85 GB) - двоголосий закадровий Студія 1+1
Ukr/Eng (2.18 GB) - двоголосий закадровий Студія 1+1

Переклад: Мирослави Піхало
Літературний редактор: Романна Мельниченко
Звукорежисер: Олена Мойжес
Режисер: Володимир Коваленко
Ролі озвучили: Світлана Круть і Юрій Коваленко
Тривалість: 01:53:45
Якість: 720p (nevermnd)
Відео:
кодек:
розмір кадру: 1272x720
бітрейт: 9104 кб/с
кількість кадрів 23.976 fps

Аудіо # 1:
мова: українська
переклад: двоголосий закадровий Студія 1+1 | Ролі озвучили: Світлана Круть і Юрій Коваленко
кодек: 2.0
бітрейт: 192 кб/с

Аудіо # 2:
мова: анґлійська
переклад: ориґінал
кодек: 2.0
бітрейт: 192 кб/с

Аудіо # 3:
мова: анґлійська (коментарі)
кодек: 2.0
бітрейт: 192 кб/с

Субтитри:
мова: анґлійська
тип: програмні (м'які)
формат: *.srt

Скріншоти:





За синхронізацію української доріжки подяка robotron005,
за запис звуку з ТБ подяка ProgBassing-у


Джерело:

Особиста оцінка: 7


Срібний реліз (на рейтинг впливає 50% завантаженого)
 Трекер:    Зареєстрований   

Завантажити / скачати фільм українською



відео для новачків



 Зареєстрований:   2012-01-28 12:01
 Розмір:   7.85 GB 
 Оцінка фільму:   6.8/10 (Голосів: 10)
   
Інші релізи
   Детектив Буліт / Bullitt (1968) Ukr/Eng robotron005  1 / 0   2.18 GB   2011-12-08 19:54 
Anonymous 







2012-01-28 13:11  
Для мене фільм сіроватий, радили його переглянули але не на те очікував
DiGen 
Модератор HD та координатор Команди HD
Модератор HD та координатор Команди HD


З нами з: 12.11.09
Востаннє: 24.06.13
Повідомлень: 1452

2012-01-28 14:04  
Гість, просто в кожного свої погляди на якісне кіно, різний світогляд.....
Косячок справжній 
VIP


З нами з: 29.02.12
Востаннє: 05.12.16
Повідомлень: 656

2015-04-25 17:18  
Нормальне кіно, проте нічого особливого.
Ваш часовий пояс: GMT + 2 Години

Нова тема   Відповісти