Завантажити та скачати торренти українською


Хеллбой / Hellboy (2004) 1080p-mini

Нові коментарі

Нова тема   Відповісти
Автор Повідомлення
oleh_oleh 
Свій


З нами з: 05.05.11
Востаннє: 08.12.16
Повідомлень: 67

2012-01-26 09:48  
Хеллбой / Hellboy (2004) 1080p-mini

Хеллбой / Hellboy (2004) 1080p-mini


Жанр: фентезі, бойовик, пригодницький
Країна: США



Кіностудія / кінокомпанія: Revolution Studios, Lawrence Gordon Productions, Starlite Films
Режисер: Ґільєрмо Дель Торо
Актори: Рон Перлман, Джон Герт, Сельма Блер, Даґ Джонс, Ладіслав Беран та ін.

Сюжет:
Демон, який потрапив у наш світ під час експерименту нацистів, був врятований американським вченим і з дитинства виховувався серед людей, щоб в майбутньому стати їхнім захисником у боротьбі з темними силами.


Тривалість: 02:01:58 (Театральна версія)
Якість:
Формат: MKV

Відео:
кодек:
розмір кадру: 1980 Х 1040
бітрейт: 4494 кб/с

Аудіо:
мова: українська
переклад: багатоголосий закадровий
кодек: 5.1
бітрейт: 384 кб/с

Джерело озвучення: Студія "Мова"

MediaInfo
Format : Matroska
File size : 4.16 GiB
Duration : 2h 1mn
Overall bit rate : 4 880 Kbps
Movie name : oleh_oleh
Encoded date : UTC 2012-01-26 04:43:38
Writing application : mkvmerge v4.2.0
Writing library : libebml v1.0.0 + libmatroska v1.0.0

Video
ID : 1
Format : AVC
Format/Info : Advanced Video Codec
Format profile : [email protected]
Format settings, CABAC : Yes
Format settings, ReFrames : 4 frames
Codec ID : V_MPEG4/ISO/AVC
Duration : 2h 1mn
Bit rate : 4 494 Kbps
Width : 1 920 pixels
Height : 1 040 pixels
Display aspect ratio : 16:9
Frame rate : 23.976 fps
Color space : YUV
Chroma subsampling : 4:2:0
Bit depth : 8 bits
Scan type : Progressive
Bits/(Pixel*Frame) : 0.094
Stream size : 3.75 GiB (90%)
Writing library : core 115 r2008 4c552d8
Encoding settings : cabac=1 / ref=4 / deblock=1:0:0 / analyse=0x3:0x133 / me=umh / subme=10 / psy=1 / psy_rd=1.00:0.10 / mixed_ref=1 / me_range=24 / chroma_me=1 / trellis=2 / 8x8dct=1 / cqm=0 / deadzone=21,11 / fast_pskip=0 / chroma_qp_offset=-3 / threads=3 / sliced_threads=0 / nr=0 / decimate=1 / interlaced=0 / bluray_compat=0 / constrained_intra=0 / bframes=5 / b_pyramid=2 / b_adapt=2 / b_bias=0 / direct=3 / weightb=1 / open_gop=0 / weightp=2 / keyint=250 / keyint_min=23 / scenecut=40 / intra_refresh=0 / rc_lookahead=60 / rc=2pass / mbtree=1 / bitrate=4494 / ratetol=1.0 / qcomp=0.60 / qpmin=0 / qpmax=69 / qpstep=4 / cplxblur=20.0 / qblur=0.5 / ip_ratio=1.40 / aq=1:1.00
Language : English

Audio
ID : 2
Format : AC-3
Format/Info : Audio Coding 3
Mode extension : CM (complete main)
Codec ID : A_AC3
Duration : 2h 1mn
Bit rate mode : Constant
Bit rate : 384 Kbps
Channel(s) : 6 channels
Channel positions : Front: L C R, Side: L R, LFE
Sampling rate : 48.0 KHz
Bit depth : 16 bits
Compression mode : Lossy
Stream size : 335 MiB (8%)
Language : Ukrainian

Скріншоти




Особиста оцінка: 10 - без зайвих вагань рекомендую всім!


Срібний реліз (на рейтинг впливає 50% завантаженого)
 Трекер:    Зареєстрований   

Завантажити / скачати фільм українською



відео для новачків



 Зареєстрований:   2012-01-26 19:45
 Розмір:   4.16 GB 
 Оцінка фільму:   9.7/10 (Голосів: 12)
   
CapustaBaulka 
Новенький


З нами з: 01.02.14
Востаннє: 24.03.14
Повідомлень: 5

2014-03-09 17:03  
Ляжте на роздачу, небудь-хто Sad (1)
Ваш часовий пояс: GMT + 2 Години

Нова тема   Відповісти