Завантажити та скачати торренти українською


Odessa - Way Out East (2007) [APE] | Jazz

Нові коментарі

Нова тема   Відповісти
Останній раз роздавалося ssTAss (2016-11-27)
Автор Повідомлення
ssTAss 
Модератор музики


З нами з: 05.07.08
Востаннє: 03.12.16
Повідомлень: 10930

2012-01-26 01:03  
Odessa - Way Out East (2007) [APE] | Jazz

Odessa - Way Out East (2007) [APE] | Jazz


Стиль: Jazz
Країна, місто: Україна, Одеса
Сайти: Офіційний сайт
Видавець: cracked anegg records
Виконавці:
Вадим Неселовський - фортепіано
Андрій Прозоров - сопрано саксофон
Пісні:
    01 - way out east - prologue
    02 - in the long run
    03 - no fruits, no vegetables
    04 - alfa
    05 - capriccio
    06 - happy with vinyl
    07 - flora
    08 - romance
    09 - hymn no. 5
    10 - russian folksong
    11 - theme from the film "les choses de la vie"
    12 - way out east - epilogue
log

Exact Audio Copy V0.99 prebeta 5 from 4. May 2009

Отчёт EAC об извлечении, выполненном 18. ноября 2009, 14:56

Odessa / way out east

Дисковод: PHILIPS DVDR1628P1 Adapter: 0 ID: 0

Режим чтения : Достоверность
Использование точного потока : Да
Отключение кэша аудио : Да
Использование указателей C2 : Нет

Коррекция смещения при чтении : 618
Способность читать области Lead-in и Lead-out : Нет
Заполнение пропущенных сэмплов тишиной : Да
Удаление блоков с тишиной в начале и конце : Нет
При вычислениях CRC использовались нулевые сэмплы : Да
Интерфейс : Встроенный Win32-интерфейс для Win NT/2000

Выходной формат : Внутренние WAV-операции
Формат сэмплов : 44.100 Гц; 16 бит; стерео

TOC извлечённого CD

Трек | Старт | Длительность | Начальный сектор | Конечный сектор
---------------------------------------------------------------------
1 | 0:00.00 | 1:26.24 | 0 | 6473
2 | 1:26.24 | 5:42.69 | 6474 | 32192
3 | 7:09.18 | 4:45.14 | 32193 | 53581
4 | 11:54.32 | 7:36.04 | 53582 | 87785
5 | 19:30.36 | 1:59.45 | 87786 | 96755
6 | 21:30.06 | 5:50.07 | 96756 | 123012
7 | 27:20.13 | 3:17.11 | 123013 | 137798
8 | 30:37.24 | 3:30.26 | 137799 | 153574
9 | 34:07.50 | 4:27.21 | 153575 | 173620
10 | 38:34.71 | 6:44.17 | 173621 | 203937
11 | 45:19.13 | 4:51.57 | 203938 | 225819
12 | 50:10.70 | 1:41.10 | 225820 | 233404

Характеристики диапазона извлечения и сообщения об ошибках

Выбранный диапазон

Имя файла D:\Temp AUDIO\Odessa - Way Out East\Odessa - way out east.wav

Пиковый уровень 92.3 %
Качество диапазона 100.0 %
CRC копии B4A21211
Копирование... OK

Ошибок не произошло

Конец отчёта
fooCdtect

fooCDtect - foobar2000 + auCDtect, baralgin.

auCDtect: CD records authenticity detector, version 0.8.2
Copyright (c) 2004 Oleg Berngardt. All rights reserved.
Copyright (c) 2004 Alexander Djourik. All rights reserved.

mode: 0

=======================================================
Track: 01 - way out east - prologue
Quality: CDDA, 100%
=======================================================
Track: 02 - in the long run
Quality: CDDA, 100%
=======================================================
Track: 03 - no fruits, no vegetables
Quality: CDDA, 100%
=======================================================
Track: 04 - alfa
Quality: CDDA, 92%
=======================================================
Track: 05 - capriccio
Quality: CDDA, 99%
=======================================================
Track: 06 - happy with vinyl
Quality: CDDA, 100%
=======================================================
Track: 07 - flora
Quality: CDDA, 99%
=======================================================
Track: 08 - romance
Quality: CDDA, 43%
=======================================================
Track: 09 - hymn no. 5
Quality: CDDA, 58%
=======================================================
Track: 10 - russian folksong
Quality: CDDA, 100%
=======================================================
Track: 11 - theme from the film 'les choses de la vie'
Quality: CDDA, 100%
=======================================================
Track: 12 - way out east - epilogue
Quality: CDDA, 100%
=======================================================
Тривалість: 00:51:51
Мова: відсутня
Аудіо-кодек: APE
Бітрейт: 573 кб/с
Джерело: рутрекер

Якщо Ви справді бажаєте підтримати українське - після прослуховування, якщо музика вам сподобалась,
придбайте ліцензійний диск.
Підтримаймо вітчизняних виконавців!


Срібний реліз (на рейтинг впливає 50% завантаженого)
 Трекер:    Зареєстрований   

Завантажити / скачати українську музику



відео для новачків



 Зареєстрований:   2012-01-26 01:03
 Розмір:   216 MB 
 Оцінка музики:   6.6/10 (Голосів: 8)
   
Ваш часовий пояс: GMT + 2 Години

Нова тема   Відповісти